<svg xmlns="http://www.w3.org/2000/svg">
<defs>
<font id="Lunafreya-Regular" horiz-adv-x="162" >
  <font-face 
    font-family="Lunafreya"
    font-weight="400"
    font-stretch="normal"
    units-per-em="1000"
    panose-1="0 0 0 0 0 0 0 0 0 0"
    ascent="750"
    descent="-250"
    x-height="88"
    cap-height="408"
    bbox="-141.286 -222 519.571 458"
    underline-thickness="50"
    underline-position="-125"
    unicode-range="U+0020-007D"
  />
<missing-glyph horiz-adv-x="293" 
d="M89 60v1l2 6q3 7 9.5 19t12.5 17q0 6 -4 8q-5 0 -11 -5t-8 -8q-10 -10 -19 -21.5t-17 -22.5q6 15 18 35t24 32q-1 2 -3 3q-1 1 -4 1q-1 0 -5 -2q-5 -5 -8 -7q-14 -12 -31 -22t-35 -15q-2 0 -2 2v1q0 1 -1 1l-1 -5q1 -6 8 -9h4l7.5 3t4.5 3q5 2 9 5.5t9 6.5q5 4 9.5 7.5
t9.5 7.5q-4 -7 -8.5 -13.5t-8.5 -14.5q-6 -9 -9 -19q-3 -5 -4 -12q-1 -2 2 -7q2 -2 2.5 -3t2.5 -2q2 -2 4 -2h1q1 0 1 3v2l3 4q3 8 7 12q8 11 16.5 22t17.5 22q-3 -4 -5 -7l-4 -6q-2 -5 -3 -8.5t-3 -8.5q-1 -2 -1 -4.5v-4.5v-3q1 -2 5 -6h2q2 -1 3 0q2 0 2 2l7 7q2 3 3.5 6
t3.5 6v-5q0 -3 2 -4t4 -3q4 0 4 2q2 3 4 5q4 5 8.5 11t8.5 11q2 2 3 4t3 4q-1 -4 -3 -9t-4 -9q0 -7 8 -10q2 0 5 1l4 4l7 9v-2v-4q4 -4 6 -5t3 0q0 2 2 4l6 8t6 9q4 3 7 6.5t6 7.5q-2 -11 -5.5 -19.5t-8.5 -17.5q-4 0 -6 -1q-10 0 -26.5 -2.5t-33 -7.5t-30 -11.5
t-17.5 -15.5q-2 -5 0 -11q0 -1 1 -2q1 0 2 1h-1q2 5 8.5 10t10.5 7q13 7 27.5 12.5t29.5 8.5q1 1 1.5 1t1.5 1q1 -2 1 -4q2 -6 4 -10q2 -2 3 -3.5t3 -2.5q4 -2 6 -1q4 0 6 2q1 0 2 1t3 2l6 9q3 5 8 12h5q2 0 8 -2l-3 -3q3 0 4 1q0 1 -0.5 1t-0.5 1v2q-1 0 -1 2q-2 0 -3 1
q-2 1 -5 1h-3q9 23 15 45l-2 2q-1 1 -1.5 1t-1.5 1h-3q1 3 1 6q1 4 -3 8q-2 2 -6 1l-4 -2q-2 -1 -2.5 -2t-2.5 -3q-10 -14 -17 -27q-2 -2 -3 -3.5t-3 -3.5q-6 -8 -10 -11h-1q-1 -1 -3 -1v3q2 6 7 15t9 14v2q-1 2 -5 2q-2 0 -8 -6t-13 -14t-12.5 -15.5t-7.5 -10.5
q4 11 8.5 20.5t11.5 18.5l1 2l-1 1h-1q-6 2 -10 -4q-2 -3 -3.5 -6t-3.5 -5q-5 -7 -10 -16q-2 -4 -4 -6l-10 -10q-1 0 -1 -0.5t-1 -0.5t-1 1zM251 105q-5 -2 -10 -3t-10 -3q-6 -2 -7 -2q-3 2 -7 6q-1 1 1 2q2 2 4.5 4t5.5 4q8 6 14 12q1 0 1 2q-3 0 -6 3h-7q-2 0 -2.5 -1

<glyph glyph-name="t_t" unicode="tt" horiz-adv-x="118" 
d="M10 186q10 0 12 1q5 2 9 2t9 1q10 2 18.5 4.5t17.5 4.5q-10 -19 -22 -44.5t-23 -52.5t-19.5 -52.5t-12.5 -45.5q-1 -20 -0.5 -28t2.5 -8t4 6t4.5 14.5t5 18t4.5 17.5q14 46 32.5 90.5t40.5 87.5l24 3q4 2 6.5 2h4.5q4 0 -1 -11q-33 -68 -59 -138.5t-42 -145.5
q-1 -4 -3 -12.5t-3.5 -18t-1.5 -17.5t3 -10q0 -1 2 -1q4 0 5 7.5t2 9.5q3 33 15.5 76.5t29 89t35.5 89t35 75.5q5 8 7.5 8t10.5 3q5 2 17 2h19h2q22 0 39 -1t38 -9q2 -1 3 -1q5 0 2 6q-3 5 -13 8.5t-22 5.5t-24 2.5t-19 0.5h-23q-1 0 -3.5 -0.5t-4.5 -0.5q-5 0 -8.5 1
t-4.5 3q0 1 4 8t9 16t10 16.5t6 10.5q5 8 11 19t9 18q2 6 -5 6h-2q-2 0 -9.5 -11t-15.5 -24.5t-15 -25.5t-9 -15q-4 -7 -6 -12t-4 -7.5t-6.5 -4t-13.5 -1.5q-10 0 -21 -3q1 4 5 10q5 11 11 22t12 20q3 5 11 15.5t3 14.5q0 2 -3 2q-2 0 -4.5 -3.5t-4.5 -5.5
q-14 -18 -25 -37.5t-22 -39.5q-13 -3 -28 -5.5t-28 -6.5q-5 -2 -15 -4t-13 -7q-2 -7 9 -7z" />
    <glyph glyph-name="t_p" unicode="tp" horiz-adv-x="209" 
d="M-1 -207q4 0 6.5 7.5t3.5 9.5q9 30 17 56t17.5 51t21.5 49.5t27 51.5q7 14 12 14q2 0 5.5 -2t8.5 -4t12 -2q11 0 21.5 5.5t19.5 13.5t16.5 17.5t12.5 17.5q4 6 9 15.5t8.5 19.5t4.5 20t-4 16q-4 7 -13 7q-16 0 -34.5 -16.5t-36 -39t-31.5 -45t-20 -34.5q-13 -21 -14 -21
q-2 0 0.5 8t6 18.5t7.5 20.5t5 13q5 15 12 33t12 33q6 21 0 21q-4 0 -10 -17q-11 -29 -22.5 -56.5t-22.5 -56.5q-10 -29 -18.5 -57.5t-16.5 -57.5q-6 -19 -11 -38t-11 -39q-2 -5 -5.5 -15.5t1.5 -15.5q1 -1 3 -1zM-42 190q-2 -4 1 -5.5t8 -1.5q8 0 12 2q5 2 9 2t9 1
q38 9 75 15l7.5 1.5t4.5 0.5q4 0 -1 -12q-34 -68 -60.5 -138t-42.5 -145q-1 -4 -3 -12.5t-3.5 -18t-1.5 -17.5t3 -10q0 -2 2 -2q4 0 5.5 8t1.5 10q4 33 16.5 76.5t29.5 89t36 88.5t36 75q5 9 6.5 8.5t9.5 2.5q7 2 19.5 2h19.5q22 0 39.5 -1.5t37.5 -8.5q1 0 1.5 -0.5
t1.5 -0.5q5 0 2 5t-13.5 8.5t-23 5.5t-24.5 3t-18 1h-21q-2 -1 -9 -1q-5 0 -8.5 1t-3.5 3q0 1 3.5 8.5t8.5 16t10 16.5t6 11q4 7 10.5 18t9.5 18q2 6 -5 6h-1q-5 -1 -10.5 -10t-7.5 -13l-16 -26l-16 -26q-4 -8 -6 -13t-4 -7.5t-6 -4t-13 -1.5q-5 0 -24 -2.5t-40.5 -6.5
t-39 -9t-19.5 -10zM176 127q4 5 12 11t13 6q9 0 6 -16l-1 -4q-2 -11 -10 -26.5t-19 -30t-24 -25t-26 -10.5q-2 0 -4 1q-16 2 -11 15.5t17.5 30t27.5 31t19 17.5z" />
    <glyph glyph-name=".notdef" horiz-adv-x="293" 
d="M89 60v1l2 6q3 7 9.5 19t12.5 17q0 6 -4 8q-5 0 -11 -5t-8 -8q-10 -10 -19 -21.5t-17 -22.5q6 15 18 35t24 32q-1 2 -3 3q-1 1 -4 1q-1 0 -5 -2q-5 -5 -8 -7q-14 -12 -31 -22t-35 -15q-2 0 -2 2v1q0 1 -1 1l-1 -5q1 -6 8 -9h4l7.5 3t4.5 3q5 2 9 5.5t9 6.5q5 4 9.5 7.5
t9.5 7.5q-4 -7 -8.5 -13.5t-8.5 -14.5q-6 -9 -9 -19q-3 -5 -4 -12q-1 -2 2 -7q2 -2 2.5 -3t2.5 -2q2 -2 4 -2h1q1 0 1 3v2l3 4q3 8 7 12q8 11 16.5 22t17.5 22q-3 -4 -5 -7l-4 -6q-2 -5 -3 -8.5t-3 -8.5q-1 -2 -1 -4.5v-4.5v-3q1 -2 5 -6h2q2 -1 3 0q2 0 2 2l7 7q2 3 3.5 6
t3.5 6v-5q0 -3 2 -4t4 -3q4 0 4 2q2 3 4 5q4 5 8.5 11t8.5 11q2 2 3 4t3 4q-1 -4 -3 -9t-4 -9q0 -7 8 -10q2 0 5 1l4 4l7 9v-2v-4q4 -4 6 -5t3 0q0 2 2 4l6 8t6 9q4 3 7 6.5t6 7.5q-2 -11 -5.5 -19.5t-8.5 -17.5q-4 0 -6 -1q-10 0 -26.5 -2.5t-33 -7.5t-30 -11.5
t-17.5 -15.5q-2 -5 0 -11q0 -1 1 -2q1 0 2 1h-1q2 5 8.5 10t10.5 7q13 7 27.5 12.5t29.5 8.5q1 1 1.5 1t1.5 1q1 -2 1 -4q2 -6 4 -10q2 -2 3 -3.5t3 -2.5q4 -2 6 -1q4 0 6 2q1 0 2 1t3 2l6 9q3 5 8 12h5q2 0 8 -2l-3 -3q3 0 4 1q0 1 -0.5 1t-0.5 1v2q-1 0 -1 2q-2 0 -3 1
q-2 1 -5 1h-3q9 23 15 45l-2 2q-1 1 -1.5 1t-1.5 1h-3q1 3 1 6q1 4 -3 8q-2 2 -6 1l-4 -2q-2 -1 -2.5 -2t-2.5 -3q-10 -14 -17 -27q-2 -2 -3 -3.5t-3 -3.5q-6 -8 -10 -11h-1q-1 -1 -3 -1v3q2 6 7 15t9 14v2q-1 2 -5 2q-2 0 -8 -6t-13 -14t-12.5 -15.5t-7.5 -10.5
q4 11 8.5 20.5t11.5 18.5l1 2l-1 1h-1q-6 2 -10 -4q-2 -3 -3.5 -6t-3.5 -5q-5 -7 -10 -16q-2 -4 -4 -6l-10 -10q-1 0 -1 -0.5t-1 -0.5t-1 1zM251 105q-5 -2 -10 -3t-10 -3q-6 -2 -7 -2q-3 2 -7 6q-1 1 1 2q2 2 4.5 4t5.5 4q8 6 14 12q1 0 1 2q-3 0 -6 3h-7q-2 0 -2.5 -1
t-2.5 -2q-6 -5 -9.5 -10t-6.5 -12q-1 -4 2 -7t4 -5h1h-1q-4 -1 -8 -5q-5 -2 -7.5 -6.5t-2.5 -9.5q0 -2 3 -5q2 -1 2 -1.5t2 -0.5q3 -1 9 -1q2 1 5 1.5t5 1.5q7 3 14 7q1 0 1.5 1t2.5 2l2 4q2 2 -1 4l-2 3l-8 4q8 3 15 3q5 2 9 2t9 1q2 1 5 1t6 2q2 1 4 1t4 2t3 4t3 8v1
q-1 1 -1 2q-1 1 -1 2.5t-2 1.5q-3 2 -6 -1q1 -1 1 -2h1q2 0 4 -2q-1 -1 -2 -2.5t-3 -1.5q-4 -3 -9 -3q-5 -2 -10.5 -3.5t-10.5 -2.5zM203 80q3 3 5 3q4 3 11 5l4 2l8 -5q1 0 2 -1q2 -1 0 -3q-1 0 -1 -0.5t-2 -0.5q-2 -2 -9 -3t-10 -1h-6l-1 1q-2 1 -1 3zM153 55q2 1 11.5 3
t11.5 1q-2 -4 -8 -12q-2 -2 -4 -3.5t-4 -1.5q-2 -1 -4 1q-1 1 -1 3q-2 4 -2 5v4zM170 81q8 23 23 39q1 0 2 1h1v-1q-1 -2 -1 -3t-1 -3q-1 -4 -6 -12q-4 -4 -7 -7.5t-7 -7.5q-2 -4 -4 -6zM207 118q1 -1 1 -1.5t1 -1.5q2 6 4 9q1 2 6 7q-1 1 -2 1h-3q-3 0 -5 -2l-2 -4v-8z
M225 57q0 -4 3 -4t3 4q0 3 -3 3t-3 -3zM222 58l-1 2h-4v-7h1v2q3 -1 3 -2h2l-2 2q1 2 1 3zM209 53h2v2h2q1 0 1 2q0 3 -1 3h-4v-7zM240 60v-7h5v2h-3v1l3 1q-2 0 -3 1h3v2h-5zM253 54q-2 0 -3 1l-1 1v1q2 2 2.5 1.5t1.5 0.5q-2 2 -4 0q-3 -3 0 -5q2 -2 4 0zM256 58h2v-5h1v5
h2v2h-5v-2zM236 53q1 1 1 2v5h-1v-5h-1q0 -1 -2 -1q1 -1 3 -1z" />
    <glyph glyph-name="A" unicode="A" horiz-adv-x="248" 
d="M307 162q5 0 10.5 -1t10.5 -3q2 -1 5 -3t6 -2q2 0 1 4q-2 8 -13.5 10t-17.5 2h-11.5t-9.5 -1h-3q-6 0 -4 6q2 7 4.5 12.5t5.5 12.5q12 27 24.5 58.5t20.5 60.5q1 5 3.5 13.5t3 17.5t-1 16.5t-8.5 9.5h-3q-7 0 -24 -14.5t-38.5 -37t-45.5 -50t-46 -53.5t-39.5 -48
t-26.5 -33q-5 -7 -8 -11t-13 -8q-20 -7 -40.5 -12.5t-41.5 -5.5q-6 0 -11.5 -0.5t-1.5 -5.5q5 -6 19 -6q11 0 21.5 2.5t18.5 4.5t12.5 3t8.5 1q5 0 2 -4.5t-12 -15.5q-9 -10 -19.5 -27t-21 -36t-18 -37t-10.5 -31q-1 -8 -0.5 -14.5t9.5 -6.5h4q6 1 17 12t22.5 24.5t22 27.5
t15.5 21q5 6 6.5 10.5t0.5 4.5t-10 -9q-4 -6 -15.5 -19.5t-23.5 -27.5t-22.5 -24t-12.5 -10q-4 0 -0.5 10t9 22t11.5 22.5t7 13.5q4 7 13 22.5t19.5 32.5t20.5 31.5t16 17.5q4 2 15.5 5.5t16.5 5.5q9 3 24.5 8t31.5 9.5t30 7.5t20 3q7 0 10 -1q-1 -4 -1.5 -6.5t-1.5 -5.5
q-5 -11 -9.5 -21.5t-9.5 -21.5q-11 -23 -15.5 -42t-12.5 -42q-4 -11 -6.5 -19.5t-5.5 -19.5q-1 -4 -3 -10.5t-2.5 -13.5t0 -13t3.5 -9q4 -2 5 -2q4 0 4.5 4.5t0.5 8.5q-1 16 3 26t8 24q5 17 10.5 34t12.5 34q3 6 4.5 11.5t4.5 10.5l6 16t6 15l1 2q4 9 7 18t7 17q2 3 4 8t5 6
h2q6 2 13 3t15 1zM295 247q-5 -10 -8.5 -20t-8.5 -19q-5 -10 -8.5 -20t-8.5 -19q-4 -5 -15.5 -6.5t-17.5 -3.5q-8 -2 -15 -3.5t-15 -3.5l-42 -12q-6 -2 -12 -3.5t-12 -3.5q-4 -1 -7 -2t-5 -1q-5 0 1 10l11 15q7 10 22.5 29t35.5 42.5t41.5 48t41 44.5t34 33t19.5 13
q1 0 3 -2q4 -5 0 -21t-10.5 -35t-13.5 -36t-10 -24zM97 36l2 2q4 4 3 6q-2 1 -4.5 -3.5t-0.5 -4.5zM93 30q2 0 2 4q-1 0 -2.5 -1.5t0.5 -2.5z" />
    <glyph glyph-name="B" unicode="B" horiz-adv-x="257" 
d="M-15 25q0 -7 6 -7q1 0 5 2q4 4 8.5 12.5t9.5 17.5t9 18t7 15q8 17 15.5 36.5t16.5 35.5q19 29 39 57t45 51l2 2q7 7 17 16.5t21 18t22.5 14.5t22.5 6t10 -11q-1 -12 -14.5 -31.5t-31 -39.5t-35.5 -37.5t-28 -26.5l-2 -2q-9 -8 -19 -15.5t-18 -15.5q-5 -5 -6.5 -10.5
t3.5 -5.5q4 0 7 2h2q46 25 101 25q16 0 30.5 -4.5t19.5 -18.5q3 -9 -0.5 -20t-10 -21.5t-14.5 -20t-14 -15.5q-13 -14 -36.5 -33.5t-49.5 -37t-52 -30t-45 -12.5q-15 0 -14 10.5t9 23.5t18 25t14 16q14 15 27.5 29t28.5 28q2 2 7 5.5t10 7.5t8.5 7.5t2.5 5.5q-3 1 -11 -5
t-17.5 -14t-18 -16t-11.5 -11q-6 -5 -11 -11t-10 -11q-7 -5 -11.5 -11t-10.5 -12q-5 -5 -13.5 -15t-14.5 -21.5t-7.5 -22t8.5 -16.5q8 -5 19 -5q24 0 55 14.5t60.5 35.5t55 44.5t38.5 41.5q8 10 16 22t11.5 24.5t0.5 24.5t-18 21q-11 6 -25 9t-29 3q-9 0 -17.5 -1t-16.5 -3
q-2 0 -8 -1.5t-9 -1.5t-3 1q4 7 15 17.5t18 16.5q7 7 24.5 25.5t32.5 39.5t22.5 40.5t-6.5 28.5q-8 5 -16 5q-13 0 -28 -8t-29.5 -20t-27 -25t-21.5 -24q-3 -3 -9 -10t-12.5 -15t-11.5 -14t-6 -6q0 1 3.5 10.5t8.5 20.5t9.5 21.5t5.5 12.5q6 14 11.5 27t12.5 26q0 1 2 4.5
t3 7.5t1.5 7t-2.5 3t-10.5 -15t-16 -34t-16 -36t-9.5 -22q-6 -14 -11 -26.5t-10.5 -24.5t-12 -23.5t-16.5 -24.5q-8 -10 -18 -25t-18.5 -31.5t-14 -33t-3.5 -30.5z" />
    <glyph glyph-name="C" unicode="C" horiz-adv-x="349" 
d="M217 134h14t12 1q5 2 -1 5.5t-7 3.5q2 3 3.5 4.5l3.5 3.5q5 5 9.5 8t9.5 7q8 7 18 17.5t20 21.5t17.5 23t9.5 22q4 19 -15 30q-9 5 -25 5q-22 0 -52.5 -11t-64.5 -29t-67.5 -42.5t-61.5 -51t-47 -54.5t-23 -53q-2 -14 -1 -26.5t9 -24.5q17 -29 44.5 -40t59.5 -11
t66.5 7.5t68.5 20.5t65.5 29t58.5 34q2 1 7.5 4.5t10.5 8t9 8.5t4 6q-1 0 -5.5 -2.5t-10 -6.5t-11 -7.5t-7.5 -4.5q-55 -35 -122.5 -60.5t-133.5 -25.5q-20 0 -39 5t-35 18q-9 9 -14.5 16.5t-8.5 20.5t-0.5 26.5t9 27t15.5 25.5t17 21q14 15 29.5 30.5t30.5 28.5
q17 14 42 31t52.5 31.5t55.5 24.5t52 10h11q12 -2 12.5 -9.5t-4 -17t-11.5 -18.5t-10 -14q-5 -8 -18.5 -21.5t-21.5 -20.5q-5 -3 -7.5 -5.5t-7.5 -6.5q-5 -5 -11 -9t-13 -6q-6 -1 -10 -1.5t-11 -2.5q-4 -1 -14 -4.5t-20 -8.5t-17 -10.5t-5 -10.5t9 -5q6 0 15.5 3.5t18.5 7.5
t16.5 8t9.5 5q6 3 9.5 5.5t8.5 5.5zM176 124q2 1 3 1q2 0 0 -1q-4 -3 -7 -3q-2 0 4 3z" />
    <glyph glyph-name="D" unicode="D" horiz-adv-x="306" 
d="M65 -59q44 0 93 24t91.5 61.5t72 84.5t34.5 93q4 42 -18 69.5t-64 31.5q-11 0 -20 -0.5t-19 -2.5q-3 -1 -7 -1q-10 0 -6.5 9t7.5 16q1 2 2.5 6.5t-3.5 4.5q-3 0 -7.5 -10t-6.5 -13q-6 -13 -11 -18.5t-11 -9t-13 -6.5t-18 -10q-27 -18 -50 -40.5t-39 -51.5
q-23 -42 -19 -88q1 -9 4 -14t4 -9.5t-1.5 -10t-12.5 -13.5q-8 -7 -12.5 -10.5t-10.5 -11.5q-11 -14 -16 -29t7 -32q7 -9 23 -14t27 -5zM41 30q5 6 11.5 12t12.5 6q8 0 13 -11q4 -8 7.5 -17t6.5 -9q4 0 9 16q2 11 6.5 29.5t14.5 24.5l1 1l24 9t24 6h5h6.5t12.5 0.5t9 1
t-3 1.5q-8 2 -20 2q-13 0 -21 -2q-5 -1 -15 -4t-15 -5q-2 -1 -4 -1q-4 0 -1 7q9 18 17 36t16 38q9 21 17.5 42.5t19.5 42.5q11 26 27 32.5t45 6.5q8 0 12 -1q26 -4 40 -17t19.5 -30.5t3.5 -38.5t-9 -42q-11 -34 -35 -68t-55.5 -62.5t-67.5 -49t-71 -29.5q-9 -2 -20 -4.5
t-21 -2.5q-12 0 -26.5 4.5t-19.5 17.5q-7 16 3.5 31.5t20.5 26.5zM65 122q0 3 2 11q9 42 39.5 76.5t65.5 56.5q11 7 16 7q6 0 2 -9t-9 -19q-15 -29 -27.5 -59.5t-26.5 -60.5q-4 -12 -11 -26q-3 -7 -4 -10.5t-2.5 -5t-5.5 -3t-12 -5.5q-2 -1 -8.5 -5t-8.5 -3q-4 2 -6.5 9.5
t-3.5 16t-0.5 17t0.5 12.5zM89 45q-5 1 -7.5 8t2.5 10q3 2 7 4t7 4q3 1 3.5 -3t-1 -9t-4.5 -9.5t-7 -4.5z" />
    <glyph glyph-name="E" unicode="E" horiz-adv-x="265" 
d="M219 197q-6 0 -13.5 -2t-12.5 -2q-20 -5 -45 -5q-15 0 -28.5 2t-23.5 9q-14 8 -14 16.5t8 21.5q11 17 33 35t48 33t53 25t48 10q2 0 5 -0.5t6 -0.5q16 -2 19 -10t0 -17.5t-9.5 -20t-11.5 -17.5q-4 -7 -7 -10t-8 -9q-1 -4 -0.5 -4.5t5.5 -0.5q23 20 36 43q7 11 11.5 23.5
t-6.5 23.5q-14 14 -40 14q-19 0 -41.5 -7.5t-43.5 -18t-39 -22t-29 -20.5q-6 -5 -14.5 -13t-16 -17.5t-13 -19t-4.5 -18.5l1 -3q3 -14 15 -21t26.5 -9.5t29.5 -3t23.5 -1t7.5 -3t-17 -10.5q-41 -20 -80.5 -49t-65.5 -68q-13 -19 -16.5 -42.5t16.5 -41.5q10 -10 26 -15t30 -5
q26 0 54.5 8t55.5 20.5t51.5 29t43.5 33.5q7 7 11.5 12.5t2.5 5.5q-1 0 -4.5 -2t-11.5 -8q-20 -17 -43.5 -33t-49 -28t-53 -19.5t-54.5 -7.5q-15 0 -27 3.5t-21 12.5l-2 1q-15 15 -11.5 33.5t15.5 36.5t28 33.5t26 24.5q12 10 28 21.5t33.5 22t34.5 19t32 13.5q4 2 11.5 3
t10.5 3q5 2 4 5.5t-5 5.5q-2 2 -8 2zM288 59q3 0 3 3q-1 0 -3 -1t0 -2z" />
    <glyph glyph-name="F" unicode="F" horiz-adv-x="193" 
d="M34 38q3 4 13 10t21.5 11.5t22 9.5t15.5 4q1 0 2 -1q0 -1 -1.5 -7.5t-4.5 -14.5t-5.5 -15t-3.5 -10q-9 -29 -17.5 -59t-15.5 -61q0 -2 -0.5 -7t0 -9.5t2.5 -8t6 -3.5q6 -1 5 4t-2 8q-1 9 0.5 17t3.5 16q8 32 17 61t20 60q6 20 9.5 30t24.5 17l21 7t24.5 7.5t25 6
t22.5 2.5q9 0 21 -4q1 0 2.5 -0.5t3.5 -0.5q7 0 4 5q-4 8 -14 10t-19 2q-20 0 -42 -5.5t-40 -11.5q-5 -2 -9.5 -3.5t-8.5 -1.5q-7 0 0 12q2 3 2.5 6t2.5 7q17 42 33.5 82t36.5 79q5 11 8.5 17.5t14.5 10.5q13 5 29.5 10t34 8.5t34.5 6t31 2.5q10 0 18.5 -2t10.5 -7
q3 -5 1 -14t2 -9q2 0 4 3q14 13 5.5 24t-22.5 15q-8 2 -15.5 3t-15.5 1q-13 0 -26 -2.5t-26 -4.5q-13 -3 -23.5 -6t-23.5 -7q-3 -1 -7 -1q-8 0 -7 6t-4 6q-4 0 -8.5 -8t-9.5 -12q-3 -3 -11 -6.5t-17.5 -7.5t-18.5 -7t-14 -6q-25 -11 -49 -23t-47 -27l-6 -3t-6.5 -5t-3.5 -6
t3 -6q3 -2 8 -2q2 0 9 5q4 4 23 15t41 22.5t42 20.5t26 9q8 0 1 -14q-15 -29 -28.5 -59t-24.5 -61q-5 -10 -7 -15l-4 -12t-5 -11q-3 -8 -5 -15.5t-6 -14.5q-4 -6 -10 -9l-12 -6q-9 -3 -20.5 -7.5t-23.5 -10.5t-22.5 -12.5t-17.5 -11.5q-8 -8 -5 -11.5t10 -3.5q13 0 18 8v2z
" />
    <glyph glyph-name="G" unicode="G" horiz-adv-x="346" 
d="M92 52q-5 -2 -10 -3t-10 -3q-5 -1 -10.5 -2t-11.5 -1q-10 0 -18.5 4.5t-11.5 16.5q-4 16 5 34.5t17 32.5q2 3 9 14.5t15.5 24t16 22t10.5 9.5q2 0 5 -2t9 -2h7q21 2 46 13t49.5 27t47 34.5t37.5 33.5q5 6 11.5 14t9.5 16t1 16t-14 12q-2 2 -8 2q-12 0 -28.5 -6.5
t-33.5 -16.5t-32.5 -21t-26.5 -19l-5.5 -5.5t-5.5 -3.5q-5 -2 -6 -4t-5 -5l-63 -63q-10 -10 -20.5 -23.5t-21 -28.5t-19 -29.5t-13.5 -26.5q-5 -11 -9.5 -25t-1.5 -26q4 -17 15.5 -24t25.5 -7q17 0 39 7.5t44.5 18.5t43.5 23.5t35 22.5q17 11 33 22t33 22q15 10 30 20.5
t31 20.5q14 9 21 9t0 -17q-9 -26 -21 -50.5t-26 -47.5q-4 -8 -9.5 -19.5t-9.5 -16.5q-5 -5 -12.5 -7.5l-13.5 -4.5q-20 -7 -40 -20t-39 -29t-35.5 -34t-29.5 -36q-4 -5 -10 -13t-10 -17t-4.5 -17.5t5.5 -15.5q7 -7 17 -7q9 0 18 3.5t18 9t17 11t13 9.5q15 10 30 27t29 36
t26 38t21 34q7 11 11 19t17 11q4 0 7.5 0.5t6.5 0.5q8 0 14.5 -1.5t15.5 -3.5q2 0 0 3t-4 5q-9 4 -17 4q-2 0 -3 -0.5t-3 -0.5t-6 -0.5t-7 -0.5q-7 0 -7 4q0 3 4 12.5t10 20.5t11.5 22l7.5 15q3 7 8 17t9.5 21t7 21.5t0.5 17.5q-3 10 -12 10q-10 0 -22.5 -8t-17.5 -12
q-20 -16 -48 -36t-58.5 -40t-61 -36.5t-55.5 -24.5zM160 272q5 4 8 6.5t8 7.5q11 10 26 21.5t31 21t33 16t32 6.5q9 -3 6 -12t-11 -19t-17.5 -19t-12.5 -12q-14 -11 -33.5 -25.5t-40.5 -27.5t-42 -21.5t-38 -8.5q-3 0 -6.5 0.5t-1.5 2.5q3 6 11 15t17 18l17.5 17.5
t13.5 12.5zM127 -90q19 26 40 47.5t47 40.5q4 3 12 8t17 10.5t18 9t14 3.5q2 -1 -2.5 -9.5t-10.5 -18.5t-12 -19t-7 -11q-9 -12 -24 -31t-32 -36.5t-35.5 -30t-33.5 -12.5q-8 0 -11 7q-2 8 6.5 21.5t13.5 20.5z" />
    <glyph glyph-name="H" unicode="H" horiz-adv-x="257" 
d="M47 -56q5 1 14 9.5t18 20t17 23t12 17.5q8 14 17 28t19 28q2 3 8 13.5t12 22t11 21.5t4 12t-3 -0.5t-4.5 -6.5t-4.5 -7.5t-2 -4.5q-7 -13 -23.5 -40t-35 -54t-35 -47t-24.5 -20q-7 0 -3.5 17t10 37.5t13.5 38.5t8 20q5 13 10 25.5t10 25.5q4 9 9 19.5t14 15.5q8 4 25 7.5
t36.5 6.5t38.5 4.5t31 1.5q10 0 12 -2q1 -3 -1 -9t-5 -13t-5.5 -13.5t-4.5 -9.5q-7 -19 -16 -44t-16.5 -51.5t-13 -52.5t-6.5 -47q0 -2 -0.5 -12.5t4.5 -10.5q2 0 3 1q2 2 1.5 7t-0.5 8q2 22 10 54.5t19.5 67t24.5 67t24 54.5q3 4 9 4q9 0 17 -4q2 0 7 -2.5t7 -2.5q4 0 2 3
q-1 4 -6 6.5t-11 4t-11 3t-5 4.5t4 12t6 12q4 6 5 10q19 39 43 77t49 73q2 3 6 8.5t8 12t6.5 12t0.5 7.5q-2 1 -2 1.5t-2 0.5q-3 0 -6.5 -3.5t-7.5 -8.5t-7 -9.5t-4 -6.5q-8 -12 -17 -23q-11 -16 -22 -33t-21 -34q-8 -11 -13.5 -22.5t-13.5 -22.5q-3 -6 -7.5 -15.5t-9 -19.5
t-9.5 -18.5t-8 -11.5q-31 0 -61.5 -2t-60.5 -7q-2 0 -7.5 -1.5t-10.5 -1.5q-3 0 -5 2q0 3 5.5 14.5t13 25t14 26t8.5 16.5q5 10 10 18t10 18q3 6 6 10.5t6 9.5q10 16 18.5 31.5t16.5 32.5q2 5 5.5 12t0.5 10q-1 2 -3 2t-9 -10.5t-14.5 -23.5t-14 -25t-8.5 -15q-2 -5 -5 -8.5
t-5 -7.5q-17 -29 -34.5 -58.5t-31.5 -60.5q-3 -7 -5 -12t-4.5 -9t-7 -6.5t-12.5 -4.5q-13 -4 -23.5 -7.5t-22.5 -8.5q-3 -1 -9 -3.5t-11 -5t-8.5 -6t-2.5 -8.5q2 -6 7 -6q3 0 7.5 2.5t7.5 4.5t11 5.5t16.5 7.5t16.5 7t11 3q10 0 0 -19q-7 -16 -15.5 -36t-16 -41t-13 -41
t-7.5 -37q-1 -10 1.5 -19t13.5 -9h3z" />
    <glyph glyph-name="I" unicode="I" horiz-adv-x="133" 
d="M193 398q8 0 17.5 -6t9.5 -26q0 -21 -8 -47.5t-19.5 -54t-24.5 -53.5t-24 -46q-25 -45 -47.5 -90t-44.5 -90q-6 -10 -14.5 -27.5t-8.5 -28.5q0 -5 3 -5t7 6q2 2 3 5.5t3 5.5q8 17 16.5 34t16.5 34q9 14 16.5 29.5t15.5 30.5q13 22 24 45t24 46q11 18 24 45t25 55.5
t20 56.5t8 49q0 14 -4 22t-10 12.5t-13.5 6t-13.5 1.5q-25 0 -55.5 -20.5t-56.5 -50t-44 -62t-18 -57.5q0 -8 3.5 -12t8.5 -4q4 0 6 3q-5 8 -5 19q0 12 5.5 25t9.5 21q9 16 25 38t35.5 42t41.5 34t43 14z" />
    <glyph glyph-name="J" unicode="J" horiz-adv-x="247" 
d="M211 25q5 6 17.5 8.5t20.5 2.5q2 0 4 -1t3 -1q3 0 0 4q-4 5 -12 5q-5 0 -9 -1t-7 -1q-7 0 -3 9q17 35 30.5 71t21.5 75q2 6 3 16.5t1.5 21t0 20.5t-2.5 16q-4 12 -8 23t-15 20q-5 4 -15.5 7t-18.5 3q-15 0 -34.5 -9t-39 -22t-36 -27.5t-27.5 -25.5q-8 -9 -20.5 -25.5
t-23 -35t-17.5 -37t-5 -30.5t9 -12q5 0 3 8q-2 9 1.5 22.5t10 27.5t14.5 27t14 20q13 15 31 34t38.5 35t42 27t42.5 11q17 -2 26 -12.5t12.5 -25t3 -30t-1.5 -27.5q-9 -67 -40 -129q-4 -11 -8.5 -19.5t-9.5 -19.5q-3 -7 -5.5 -10.5t-5 -6t-6.5 -4.5l-10 -5q-21 -10 -45 -24
t-47.5 -30.5t-44 -34.5t-35.5 -37q-10 -11 -22.5 -30t-9.5 -36q6 -15 23 -15q13 0 32 10t38.5 25t36.5 31t26 28t18.5 23.5t18.5 24.5q10 12 19 28l2 4q5 8 10.5 18.5t10.5 17.5zM139 -8q2 1 9 5t15 8t14.5 7.5t8.5 3.5q3 0 0 -5q-12 -21 -34.5 -52t-49.5 -60t-54.5 -50
t-48.5 -21q-8 0 -11 5t2 19q9 20 27 40.5t39 39.5t43 34.5t40 25.5z" />
    <glyph glyph-name="K" unicode="K" horiz-adv-x="230" 
d="M141 27q-13 12 -23 22t-13.5 19.5t1.5 20.5t23 25q29 23 59.5 43t59.5 45q22 17 47 39t42 43q4 6 7.5 13.5t4.5 15t-3 13t-15 5.5l-8 -1q-25 -3 -54 -20t-57 -41t-52 -49.5t-40 -45.5q-1 -1 -4.5 -6.5t-8 -11.5t-8.5 -10.5t-5 -4.5t3 10q14 29 32.5 59t39.5 59.5
t42.5 57.5t41.5 53q2 2 6 6.5t7 9t4 8.5t-4 5q-6 -1 -16 -11.5t-14 -15.5q-74 -86 -127 -179t-96 -196q-1 -1 -3 -7.5t-4 -13.5t-2 -13t4 -7q2 0 5 5.5t6 12.5t5 13.5t3 8.5q9 21 28 53t43.5 67t54 70t60.5 63t61 45.5t57 17.5q10 -2 8 -9.5t-8.5 -16.5t-14.5 -17l-10 -10
q-31 -30 -72 -62t-76 -56q-7 -5 -17.5 -12t-20.5 -15t-18 -16.5t-11 -17.5q-5 -19 8.5 -37t25.5 -31q37 -37 83.5 -60.5t99.5 -23.5q14 0 27 3t25 12q10 8 15 22t2 26q-2 7 -6 7q-1 0 -1 -1q-2 -2 0.5 -7.5t1.5 -10.5q-4 -22 -22.5 -30.5t-37.5 -8.5q-45 0 -92 23t-79 54z
" />
    <glyph glyph-name="L" unicode="L" horiz-adv-x="258" 
d="M76 -57q-15 -4 -14 -8t10 -4q7 0 11 1q43 10 89 15q7 2 18.5 3.5t23.5 2.5t23 1.5t18 0.5q14 0 29 -1.5t28 -4.5q11 -3 16.5 -6t8 -6t4 -5.5t4.5 -3.5q2 -2 4.5 4t-5 14t-29.5 14.5t-69 6.5h-13.5t-14.5 -1q-8 0 -22 -2t-22 -2q-3 0 -4 1q-6 1 -8.5 6t-3 11.5t0 13.5
t1.5 11q3 15 5.5 29.5t6.5 29.5q5 20 9 30t23 16q37 13 81 40.5t85 62.5t75.5 73t52.5 72q5 9 9 20t5.5 23t-1.5 22.5t-13 17.5t-23 7q-18 0 -38 -10t-39.5 -23.5t-35.5 -28.5t-25 -24q-46 -47 -77.5 -93.5t-60.5 -105.5q-5 -9 -9.5 -21t-8.5 -19q-5 -8 -13 -11t-17 -3
q-13 0 -24.5 6t-16.5 17q-6 20 1 36.5t19 30.5q6 8 3 8l-8 -3q-9 -7 -16 -16.5t-10 -21t-2 -23t8 -22.5q10 -15 21 -18t28 -3q8 0 12 -3.5t-1 -20.5q-8 -27 -11.5 -45.5t-2.5 -48.5q0 -11 1 -17t-10 -8q-19 -2 -33.5 -5.5t-32.5 -8.5zM202 141q17 38 42 79.5t51 74.5
q11 14 32 37.5t46.5 46.5t51.5 40t45 17q7 0 10 -1q11 -3 15 -10.5t4.5 -16.5t-2 -18.5t-5.5 -17.5q-8 -18 -20.5 -36t-27.5 -35t-30.5 -33t-30.5 -29q-8 -7 -22 -19t-31.5 -25t-36.5 -26.5t-36.5 -24.5t-33.5 -17.5t-26 -6.5q-1 6 1 11z" />
    <glyph glyph-name="M" unicode="M" horiz-adv-x="359" 
d="M400 375q-3 5 -9 5q-10 0 -33.5 -18t-50 -42.5t-50.5 -49t-36 -38.5q-46 -49 -88.5 -100.5t-84.5 -104.5q-6 -8 -11 -15t-7 -7t9 19q26 49 54 101t60 98q3 5 8 11.5t10 13.5t9 13.5t4 9.5q-1 0 -1 0.5t-1 0.5q-7 0 -23 -20.5t-35 -51.5t-39 -67.5t-37 -69t-28 -55.5
t-12 -28q-1 -10 3 -10q3 0 7 4l8.5 8.5t7.5 8.5t4 5q88 120 190 229q17 17 37 39.5t37 37.5q16 13 30.5 26t30.5 26q5 3 11.5 8t9.5 5q5 0 -4 -13q-20 -35 -44 -65t-46 -63q-11 -15 -31 -44.5t-40 -61t-36 -58.5t-18 -38q-4 -10 2 -10q3 0 9.5 4t12.5 9t10.5 9.5l5.5 5.5
q8 8 24.5 24t35.5 32t37.5 28.5t29.5 12.5q8 0 7.5 -10.5t-5.5 -27.5q-3 -13 -11 -33.5t-12.5 -42t-2 -40t18.5 -26.5q7 -4 18 -4q12 0 24.5 4t19.5 12q6 6 2 6t-17 -5t-25 -5q-8 0 -14 3q-11 6 -12.5 20t2 31.5t10.5 37t12 37t6.5 31.5t-6.5 20q-5 4 -13 4t-17.5 -4
t-18.5 -10t-16.5 -12l-12.5 -10q-3 -3 -16 -14t-27.5 -24t-26 -23.5l-11.5 -10.5l2.5 4.5t5.5 10t6 10t3 5.5q27 45 55 84.5t57 81.5q6 9 20.5 29t29.5 41.5t25.5 40t7.5 25.5z" />
    <glyph glyph-name="N" unicode="N" horiz-adv-x="286" 
d="M203 363q4 0 5.5 -9t-0.5 -31q-3 -43 -8.5 -85.5t-10.5 -85.5q-1 -7 -3 -23.5t-4 -37t-2.5 -42t2 -40t9 -30t19.5 -11.5h4q15 3 29.5 24.5t27 48.5t22.5 53.5t14 39.5q5 14 14 38t16.5 49.5t10 48.5t-5.5 35q-1 3 -3 3q-3 0 -0.5 -9t3.5 -10q1 -14 -3.5 -33t-11 -38.5
t-14 -37.5t-12.5 -32q-11 -27 -21.5 -54.5t-23.5 -53.5q-16 -31 -26.5 -44t-17.5 -13q-9 0 -12 19.5t-3 45.5t2.5 52.5t3.5 39.5q2 20 6.5 52.5t8 66.5t5 64.5t-1.5 46.5q-4 11 -12 11q-7 0 -14 -7t-12 -13q-3 -4 -5 -6.5t-4 -4.5q-1 -2 -2 -3q-1 0 1 7t-1 16q-1 5 -3 5
t-4.5 -9t-2.5 -10q-7 -24 -13.5 -42.5t-18.5 -39.5q-41 -78 -77.5 -154t-58.5 -162q-1 -3 -3 -10t-3 -14t0 -13t6 -6q6 1 11.5 7t10 14t7.5 16t5 13q11 26 21.5 52t21.5 52q9 22 18 43.5t17 44.5q17 44 32 87.5t38 84.5q9 15 15.5 24.5t11.5 9.5zM47 74q3 6 12 27.5
t19.5 45.5t20 43.5t13.5 20.5q1 -1 -3.5 -13.5t-12 -30.5t-16 -39t-16 -39.5t-13.5 -33t-8 -19.5q-3 -7 -7.5 -18t-9.5 -22.5t-9.5 -22t-8.5 -16.5q-1 4 3.5 20.5t11.5 35.5t14 36.5t10 24.5z" />
    <glyph glyph-name="O" unicode="O" horiz-adv-x="278" 
d="M134 298q-18 -10 -42 -29t-45.5 -42t-34.5 -48.5t-8 -48.5q3 -17 10.5 -24t14 -12.5t9 -12.5t-3.5 -24q-9 -23 -12 -43t18 -40q18 -15 41 -15q19 0 38.5 8.5t35.5 17.5q51 30 87.5 65.5t71.5 82.5q16 20 32 48.5t21 53.5q2 14 2 20t-1 17q-6 37 -33.5 52.5t-62.5 15.5
q-37 0 -74.5 -13t-63.5 -29zM168 179q2 0 5 2.5t5 6t1.5 7t-5.5 5.5q-2 1 -7 1q-11 0 -24 -8t-26 -19.5t-23.5 -23t-15.5 -18.5q-8 -11 -14.5 -23t-17.5 -12q-8 0 -17 9q-16 14 -15 31.5t10.5 35.5t23.5 34t24 26q18 18 41 34.5t48.5 29.5t52.5 20.5t54 7.5q6 0 12 -0.5
t11 -1.5q27 -4 40.5 -14.5t18 -26t1.5 -34t-10 -39.5q-3 -10 -10.5 -23t-12.5 -21q-15 -23 -42.5 -55.5t-60 -62.5t-67.5 -51t-67 -21q-13 0 -23.5 6t-14.5 21q-2 14 0.5 35.5t12.5 32.5q4 5 12.5 6t19.5 1t20 -0.5t15 -0.5q12 0 30 1.5t36.5 4.5t35 7t26.5 10q4 2 4 2.5
t-2 0.5q-3 0 -9 -1l-12 -2l-16 -4q-6 -1 -20 -3.5t-31.5 -4.5t-35 -3.5t-31.5 -1.5q-18 0 -24 3q-3 3 -2 7q2 8 13.5 24t26.5 31.5t30.5 27.5t23.5 12q2 0 1 -2.5t0 -3.5q0 -2 1 -2z" />
    <glyph glyph-name="P" unicode="P" horiz-adv-x="292" 
d="M130 -6q5 24 11.5 36t30.5 20q35 13 69.5 34.5t66 48.5t58.5 57.5t46 60.5q11 18 19.5 39t8 40.5t-11.5 35t-39 21.5q-10 3 -20 4t-21 1q-28 0 -56 -7t-55.5 -18t-52.5 -25.5t-47 -28.5q-14 -10 -39 -30.5t-44 -45t-23.5 -48.5t21.5 -41q11 -7 26 -10t24 -3q8 0 7 2
t-18 5q-39 8 -49.5 26.5t15.5 52.5q21 29 56 57t76.5 50.5t84.5 36.5t81 14q18 0 34 -5t25 -16q12 -17 10.5 -36.5t-10.5 -39t-21.5 -37t-23.5 -30.5q-62 -79 -150 -130q-3 -1 -10.5 -6t-16.5 -9.5t-18.5 -8.5t-15.5 -4t-7 4t3.5 18t11.5 34.5t16 43.5t17 44t15 37.5t9 22.5
q2 4 6.5 14t9 20.5t8 20t2.5 11.5q-4 0 -11.5 -13.5t-17 -33.5t-20 -44.5t-19.5 -47.5t-16 -41.5t-9 -26.5q-2 -6 -5.5 -17t-8 -23t-10 -21.5t-10.5 -11.5q-6 -2 -5.5 -2.5t3 -2.5t4.5 -8t-1 -20q-2 -8 -6.5 -26.5t-8 -38.5t-4.5 -37.5t4 -22.5q3 -3 4 -3q5 0 5 10.5v12.5
q-1 20 3.5 42.5t9.5 42.5z" />
    <glyph glyph-name="Q" unicode="Q" horiz-adv-x="297" 
d="M75 14q5 -17 17 -26.5t29 -9.5q12 0 21 3t15.5 6t12 6t11.5 3q5 0 13 -4t16.5 -9t16 -11t12.5 -9q10 -7 23 -15t27 -15t28 -11.5t27 -4.5q9 0 14 1q12 4 18.5 11t8.5 13.5t1 11.5t-4 5h-2q0 -1 -1 -5.5t-4 -10t-9 -10t-18 -4.5q-13 -1 -29.5 6t-33 16.5t-31.5 20
t-26 17.5q-21 14 -24.5 18t14.5 18q25 20 50 45.5t47 53.5t40.5 58.5t30.5 60.5q12 34 12 65t-12.5 54.5t-36 37.5t-58.5 14q-37 0 -73.5 -14t-68.5 -37t-58 -53t-41 -62q-8 -17 -12 -38t-2 -41q4 -18 13 -28.5t22 -22.5q6 -6 9.5 -7t4.5 -2.5t-0.5 -6.5t-5.5 -17
q-1 -3 -2.5 -7t-5.5 -6q-2 0 -12.5 2.5t-12.5 3.5q-13 5 -27 5q-12 0 -17 -6t6 -6h5q5 0 13.5 -1t17.5 -3t16.5 -5t10.5 -7q2 -5 1 -17.5t3 -23.5zM83 121q-2 2 -4.5 3t-4.5 3q-14 11 -21 33t-3 41q7 37 30.5 73t57 64t72.5 45t78 17q27 0 48 -10t33.5 -28t15 -44t-7.5 -59
q-9 -28 -25 -57t-36 -56t-42 -51t-44 -43l-8.5 -8.5t-12 -10.5t-12.5 -9t-10 -4q-4 1 -11.5 4.5t-15.5 7.5t-15 8.5t-11 6.5q-11 6 -23 9.5t-21 8.5q-4 3 -3 9t3 10q3 8 4.5 11.5t5.5 3.5t8 -2q10 -4 21 -6.5t22 -2.5q5 0 11.5 1t11.5 3q7 2 11.5 6t-1.5 4q-4 0 -7 -1
q-19 -4 -24 -4q-3 0 -11.5 1.5t-17 4t-15.5 5t-8 4.5t3 10t9 17.5t10 18t7 11.5q3 6 11.5 18.5t20.5 25.5t24.5 23t22.5 10q8 0 13 -5q4 -5 6 -5t0.5 4.5t-4.5 7.5q-7 7 -15 7q-16 0 -33.5 -14.5t-32.5 -35t-27 -41t-18 -32.5q-2 -5 -4.5 -8.5t-5.5 -3.5t-5 1zM110 42
q5 -2 9.5 -4.5t7.5 -3.5q5 -2 8.5 -4.5t5.5 -3.5q5 -1 14.5 -6.5t10.5 -9.5q1 -5 -13.5 -12t-30.5 -7q-12 0 -19.5 5.5t-11.5 14t-5.5 19t-1.5 20.5l1 1q4 0 13.5 -4t11.5 -5z" />
    <glyph glyph-name="R" unicode="R" horiz-adv-x="267" 
d="M-15 9q-1 -6 -1.5 -14t1 -15.5t5.5 -13t12 -5.5q6 0 10 3q12 4 26 24t27.5 44t25 48t17.5 36q5 -1 9 -7q8 -14 17.5 -26.5t18.5 -25.5q5 -6 9.5 -11.5t9.5 -11.5q14 -22 32 -41t38 -36q16 -16 38 -29t46 -13q11 0 19.5 2t19.5 7q15 8 22 16t9 14.5t1 10.5t-3 4
q-1 0 -1.5 -0.5t-1.5 -0.5q-2 -3 -2.5 -7t-4.5 -9q-7 -11 -23.5 -18t-32.5 -7q-11 0 -23.5 5.5t-21.5 10.5q-8 5 -12.5 9t-12.5 9q-9 8 -18 17l-17 17q-6 7 -11 13t-11 13q-5 5 -7.5 9.5t-7.5 9.5q-13 15 -25 30.5t-23 31.5q-9 13 -5 13.5t15 1.5q35 1 77 19.5t79.5 47.5
t64.5 65t31 72q2 11 -2.5 23t-13.5 19q-11 8 -24 11.5t-26 3.5q-31 0 -59 -11q-4 -1 -14 -6t-20.5 -10.5t-19 -9.5l-8.5 -4q0 1 6.5 16.5t14.5 34.5t15.5 37t8.5 24q0 5 -2 5q0 1 -3 1q-3 -2 -4 -5.5t-2 -6.5q-1 -2 -1.5 -4t-1.5 -5q-8 -14 -14.5 -28.5t-13.5 -29.5
q-10 -22 -16 -37t-25 -32q-69 -57 -121.5 -132.5t-68.5 -165.5zM170 244q12 25 20.5 46.5t31.5 37.5q22 14 52.5 26t59.5 12h9t8 -1q43 -10 34 -52q-6 -31 -33.5 -64.5t-64.5 -61t-77.5 -45t-72.5 -17.5q-14 0 -18 7q-1 2 6 18t16.5 35.5t18 36.5t10.5 22zM105 224
q3 4 14 15.5t23 23.5t23 22t14 10q0 -1 -2.5 -7t-5.5 -13t-6 -13l-4 -8q-2 -5 -10 -22.5t-17.5 -37t-18 -35.5t-12.5 -18q-7 -2 -8.5 -5t-1 -5.5t2 -4.5t1.5 -3q-3 -6 -5 -11q-2 -4 -3.5 -7.5t-2.5 -5.5q-2 -4 -12 -24.5t-22.5 -43.5t-25.5 -41t-22 -18q-3 0 -5 3
q-7 8 -5 25t7.5 36t13 36t10.5 26q15 35 36 65t44 61z" />
    <glyph glyph-name="S" unicode="S" horiz-adv-x="317" 
d="M201 78q1 0 -18.5 -8t-43.5 -22q-14 -8 -35 -21.5t-42 -29.5t-38 -34t-24 -34q-9 -23 5 -30.5t34 -7.5q26 0 64 10t75.5 26t68.5 36.5t43 40.5q12 19 4 33t-22.5 23.5t-28 14.5t-12.5 6q3 2 12.5 5t21 6.5t22 6t15.5 2.5q2 0 -1 2.5t-11 2.5q-14 0 -34 -7t-33 -12
q-5 1 -11.5 2.5t-25.5 6.5q-14 4 -29 7t-29 7q-24 6 -45.5 15t-34 23t-12 33.5t20.5 47.5q32 45 77 77t93 59q9 5 23.5 11t30 11.5t30 9t24.5 3.5q21 0 27 -8t3.5 -20.5t-12 -27t-21 -28.5t-22 -25.5t-15.5 -16.5q-23 -23 -44 -41t-45 -40q-9 -8 -16 -15q-6 -5 -9.5 -10
t-1.5 -5q7 0 30.5 19.5t50.5 44t50.5 48t30.5 31.5q8 9 19 24.5t17.5 31.5t3.5 29.5t-24 19.5q-9 3 -22 3q-24 0 -53.5 -9.5t-61.5 -26t-63 -37.5t-57.5 -44t-46 -46.5t-28.5 -44.5q-6 -16 -6 -26t4 -26q9 -16 23.5 -26.5t31.5 -17.5t35.5 -11t35.5 -8q18 -4 30 -6t22 -7z
M205 -44q-9 -5 -30 -14.5t-46 -18.5t-50 -15.5t-43 -6.5q-19 0 -23 8q-8 11 3 28t32.5 36t49 37.5t53 32.5t44 22.5t21.5 7.5q69 -26 64.5 -52.5t-75.5 -64.5z" />
    <glyph glyph-name="T" unicode="T" horiz-adv-x="173" 
d="M267 368q-9 -15 -12.5 -23.5t-8 -14t-12.5 -9t-24 -8.5q-18 -5 -55.5 -17.5t-78 -27.5t-75 -29.5t-46.5 -25.5q-8 -7 -7.5 -10.5t10.5 -6.5q2 -1 7 -1q6 0 6 5q1 7 9 11t13 6q11 5 43 18.5t68.5 28t69 25.5t44.5 11q6 0 8 -2q-3 -12 -12 -30.5t-15 -30.5
q-15 -30 -33.5 -78.5t-35.5 -100.5t-29 -101t-14 -81q-1 -13 2 -20t5 -7q3 0 3 10q0 38 13.5 91t33 109t41.5 108.5t38 88.5q9 20 16.5 36.5t30.5 23.5q20 5 45 11t51 11t51 8.5t46 3.5q14 0 26 -3t21 -12q8 -4 7 -4q3 0 2.5 3.5t-2.5 6.5q-8 11 -24.5 15t-38.5 4t-46.5 -3
t-48 -7.5t-43 -8.5t-30.5 -6q-7 -3 -14 -3q-6 0 -5 8q2 5 7.5 15.5t12 21t14 20t11.5 13.5q5 5 11 15t5 17q0 5 -3 5q-4 0 -14 -12t-19.5 -27t-17 -27.5z" />
    <glyph glyph-name="U" unicode="U" horiz-adv-x="261" 
d="M178 314q2 0 2 5q-1 5 -6 5q-9 0 -19.5 -12t-15.5 -19q-19 -25 -40 -57.5t-41 -68t-36.5 -70.5t-25.5 -65q-11 -39 -4 -58t27 -19q26 0 61 28l12 12t12 10q4 2 7 5t7 5l3 4q35 32 65.5 66.5t62.5 67.5q6 8 8 8t-1 -7q0 -2 -1 -4.5t-2 -4.5q-12 -35 -23 -64.5t-16 -67.5
q0 -5 -0.5 -14t1 -18t4.5 -16.5t9 -10.5h3q5 0 3 6t-3 8q-7 24 -1.5 58.5t18.5 70.5t29 68.5t30 51.5q3 5 16 20.5t26 32.5t23 32t7 19q-1 2 -4 2q-5 0 -11.5 -5t-13 -12t-11 -13t-6.5 -8q-23 -31 -39 -58.5t-43 -57.5q-12 -12 -24 -24.5t-23 -24.5q-23 -24 -49 -52t-50 -48
q-8 -5 -18 -14t-21 -17.5t-22 -14.5t-21 -6h-2q-15 1 -16 18t5 38.5t14.5 41.5t11.5 27q8 18 25.5 50.5t37.5 66.5t40 63.5t33 40.5h3h3z" />
    <glyph glyph-name="V" unicode="V" horiz-adv-x="267" 
d="M162 193q-3 -9 -10 -28t-15 -42t-15 -48t-11 -47.5t-3.5 -40t8.5 -25.5q5 -5 15 -5q8 0 16 5t15 11q27 23 56 61t55 81t48.5 86.5t35.5 76.5q5 14 12.5 31.5t14.5 35.5t13 35.5t9 30.5q2 11 0.5 19.5t-3.5 8.5t-4 -8q-5 -28 -16 -59t-24.5 -61.5t-28.5 -60t-28 -54.5
q-4 -9 -15.5 -28.5t-27 -44t-33.5 -51t-35 -48t-32.5 -35.5t-25.5 -14h-6q-7 7 -3.5 32t11.5 54.5t17 56t13 36.5q19 51 40.5 104t32.5 105q5 25 -0.5 43t-23.5 18q-12 0 -29 -10q-24 -13 -45.5 -35t-39.5 -48.5t-31.5 -54t-22.5 -53.5q-8 -20 -5.5 -33t6.5 -13q3 0 3 8
q1 24 14.5 56.5t33.5 64.5t44.5 58.5t46.5 38.5q12 6 20 6q11 0 14 -11t1 -26t-6 -30t-7 -23q-11 -32 -23.5 -63t-25.5 -63z" />
    <glyph glyph-name="W" unicode="W" horiz-adv-x="363" 
d="M16 -54q2 0 2 0.5t1 0.5q3 2 7 6l6 6q2 3 4.5 5.5t4.5 5.5q20 23 37.5 48.5t37.5 48.5q7 8 13.5 17t14.5 18q3 3 14.5 16.5t25 28.5t25.5 27t16 12q3 0 2 -9q-2 -9 -4.5 -18t-4.5 -17q-3 -14 -7 -30.5t-6 -30.5q-1 -8 -1.5 -18t0 -20.5t3 -20.5t7.5 -16q11 -12 25 -12
q21 0 45.5 23.5t47.5 55t41.5 63.5t27.5 48q16 30 29 69t18 73q2 13 0.5 22t-4.5 15t-7 8.5t-6 2.5q-3 0 -3 -3q1 -2 4 -7t5 -13q4 -28 -5 -56t-18 -53q-10 -25 -25.5 -53.5t-34 -56.5t-38.5 -54t-39 -46q-20 -22 -38 -22q-19 0 -22 38q-1 17 3.5 42t8.5 42q1 3 3.5 14t5 23
t2.5 22.5t-4 11.5q-9 0 -13.5 -2.5t-11.5 -8.5q-55 -55 -106 -120q-14 -18 -28.5 -36.5t-28.5 -36.5q0 -1 -4.5 -6.5t-4.5 -4.5t9 20t20.5 42.5t22 45.5t14.5 29q11 21 22 41.5t22 42.5q10 19 26.5 49.5t31 64t23 64.5t2.5 51q-7 20 -26 20q-10 0 -19.5 -4t-17.5 -10
q-18 -12 -36.5 -29.5t-35 -37.5t-29.5 -41.5t-21 -42.5q-1 -5 -4.5 -17.5t-5 -26t0.5 -23.5t12 -10q5 0 1 3t-5 11q-2 21 5.5 44.5t19.5 45.5t27.5 41.5t28.5 34.5q5 4 13.5 12.5t19 16.5t21.5 14.5t21 6.5q11 0 17 -12q7 -15 -1.5 -45.5t-23.5 -64t-31.5 -64t-24.5 -46.5
q-16 -29 -30.5 -57.5t-29.5 -57.5q-13 -26 -27 -52.5t-25 -54.5q-8 -17 -15 -35q-2 -4 -0.5 -7.5t5.5 -3.5z" />
    <glyph glyph-name="X" unicode="X" horiz-adv-x="282" 
d="M319 -82q4 0 4.5 3t-4.5 6q-15 10 -31.5 26t-32.5 35t-29.5 38t-22.5 34q-4 7 -6.5 11t-3 7t2 6l7.5 9q61 66 116.5 135.5t108.5 141.5l4 8t-1 6h-2q-1 0 -6.5 -7t-12 -15.5t-12.5 -16t-8 -10.5q-14 -16 -26.5 -31.5t-26.5 -31.5q-15 -16 -28 -33.5t-27 -32.5
q-9 -11 -17.5 -22t-18.5 -20q-9 -10 -16.5 -20t-15.5 -18q-8 -6 -16 -17.5t-15 -11.5l-3 2q-3 4 -9.5 20t-14 35t-14.5 37t-9 25q-8 22 -16 46t-19 45q-6 11 -13 18.5t-15 7.5q-10 0 -21 -15q-11 -19 -22 -52.5t-20 -71t-16 -73t-10 -58.5q-2 -20 -4 -44.5t6 -43.5
q5 -12 16.5 -21t24.5 -9q14 0 34 12.5t40.5 30t38 35l27.5 27.5q5 6 8 10t7 4q5 0 11 -11q7 -10 23.5 -32.5t36 -45t38.5 -40t31 -17.5zM155 64q-25 -25 -54.5 -54t-61.5 -44q-9 -3 -15 -3q-10 0 -15.5 6.5t-8.5 16.5t-3.5 21t-0.5 19q0 12 4 36.5t9.5 54t12.5 62t15 60
t16.5 48t15.5 26.5q5 2 11 -8.5t11 -24t9.5 -26.5t5.5 -18q10 -32 26.5 -72.5t32.5 -69.5q7 -13 5 -14.5t-10 -10.5z" />
    <glyph glyph-name="Y" unicode="Y" horiz-adv-x="277" 
d="M224 259l12 24t11 24q10 27 2.5 47.5t-35.5 20.5q-32 0 -62 -18t-53 -36q-13 -11 -31 -30.5t-33.5 -42.5t-25.5 -46t-7 -41q4 -14 16 -14q5 0 8 4q3 3 -4 4.5t-9 9.5q-1 9 2 19q8 26 29 57t49.5 58t60.5 45.5t60 18.5q11 0 18 -6.5t7 -23.5q0 -8 -5 -21t-12 -27.5
t-13.5 -27t-11.5 -20.5l-25 -42q-11 -17 -22.5 -35.5t-21.5 -36.5q-4 -8 -14 -24.5t-19 -35.5t-15 -36t-3 -25q3 -7 10 -7t19.5 9t28.5 22.5t33 30t32 32t26.5 27.5t15.5 17q11 13 21 22t21 20q3 2 11 10l17 17t16.5 16t8.5 7q2 -1 -3.5 -11t-13 -22t-14.5 -23t-9 -13
q-33 -52 -59.5 -119.5t-43.5 -128.5q-5 -20 -3 -30t6 -10t7 11q9 63 35.5 125.5t58.5 118.5q11 20 23.5 42t26.5 41q2 2 9 11t13.5 19t10 18.5t-1.5 10.5q-3 1 -10 -3.5t-14.5 -10.5t-14 -12t-9.5 -9q-36 -33 -69.5 -66t-68.5 -68l-25.5 -25.5t-25.5 -24.5q-3 -2 -9.5 -8
t-14 -12t-14.5 -10.5t-11 -4.5q-1 0 -1 1q-3 2 -1 9t5.5 16t8 17t5.5 10q20 38 43 75.5t46 74.5q6 11 13 22.5t12 22.5z" />
    <glyph glyph-name="Z" unicode="Z" horiz-adv-x="295" 
d="M32 130q4 0 6.5 5.5t3.5 8.5q9 20 27 39.5t41 35.5t48.5 25.5t47.5 9.5q17 0 21.5 -8t1 -19.5t-11 -23.5t-14.5 -20q-5 -5 -9 -11t-9 -11q-13 -14 -25 -28t-26 -25q-4 -4 -16.5 -14t-25 -21.5t-23 -20.5t-10.5 -11q-2 -8 8 -8q6 0 12.5 1.5t8.5 1.5q26 9 52.5 14t54.5 5
q11 -1 23 -3t21.5 -7.5t15.5 -14t5 -22.5q0 -16 -5.5 -21.5t-19.5 -8.5q-19 -2 -50 -15t-62 -31.5t-56 -39.5t-33 -40q-7 -17 7 -22q8 -3 12 -3q3 0 8 1.5t8 2.5q23 5 49 18t51 30.5t47 37t37 37.5q2 4 5.5 10t6.5 8q3 4 14 4q8 0 16 -1.5t12 -3.5l7 -3.5t7 -2.5q1 1 0 2
q-5 8 -16.5 10.5t-19.5 3.5q-9 1 -11 2.5t-1 10.5q4 21 -0.5 34.5t-23.5 25.5q-14 8 -28.5 10.5t-29.5 2.5q-23 0 -46.5 -4.5t-43.5 -9.5q-5 -1 -7.5 -2t-4.5 -1q-4 0 8 12q34 29 65 60.5t59 66.5q7 11 15 26t4 29v2q-4 11 -13 15.5t-20 4.5q-19 0 -40 -7t-41.5 -18
t-38.5 -24.5t-30 -27.5q-2 -3 -8 -11.5t-11.5 -17.5t-8.5 -17.5t1 -11.5zM50 -141q12 14 23.5 23.5t25.5 20.5q10 9 29.5 21t41.5 23t43 18.5t34 7.5q0 -6 -10 -17t-23 -23t-25 -22t-17 -13q-10 -6 -25 -15.5t-32 -18.5t-33.5 -15.5t-28.5 -6.5q-6 0 -8 1q-3 2 0 8t5 8z" />
    <glyph glyph-name="a" unicode="a" horiz-adv-x="174" 
d="M75 42q5 0 6 -3.5t1.5 -8.5t2 -11t6.5 -11q8 -8 19 -8q7 0 21 5t28 12t25 14.5t12 11.5q2 3 -2 3q-1 0 -5.5 -3t-6.5 -4q-6 -3 -15 -8t-19 -9.5t-19.5 -7.5t-17.5 -3q-9 0 -12 6.5t-6 20.5q0 1 -2 9l-2 6q-1 5 5.5 13t0.5 19q-4 7 -12 7q-11 0 -24.5 -8t-26 -19
t-23 -22.5t-15.5 -19.5q-2 -5 -2.5 -10.5t6.5 -7.5q6 -1 17.5 5.5t16.5 9.5q7 4 13 8l3 1q11 8 17 10.5t10 2.5zM64 48q-13 -6 -24 -12.5t-23 -13.5q-2 -1 -4.5 -2.5t-4.5 -1.5q-3 0 2 5q4 5 12.5 14t18 17.5t19.5 15t17 6.5q5 0 5 -6q-1 -9 -5.5 -13.5t-12.5 -8.5z" />
    <glyph glyph-name="b" unicode="b" horiz-adv-x="144" 
d="M141 275q2 4 9 13t1 12q-4 2 -14 -9.5t-20.5 -26.5t-19 -29.5t-10.5 -18.5q-26 -42 -45 -85.5t-35 -90.5q-5 -15 -9.5 -30.5t-9.5 -29.5q0 -2 -1.5 -6t-2.5 -8.5t-0.5 -8t3.5 -3.5q2 0 2 1q3 1 6 5.5t6.5 10t6 10.5t3.5 8l6 10q14 26 17 26t5.5 -6t10.5 -11q9 -9 20 -9
q10 0 21.5 9t21.5 21.5t17 26.5t8 24q1 4 2.5 8t0.5 7q-2 8 -6 15.5t-15 7.5q-9 0 -20 -7t-21.5 -17t-20 -20.5t-14.5 -16.5q-11 -13 -17.5 -24.5t-15.5 -25.5q-2 -2 -2 -3l-1 -1q-1 0 0 3t2 5q1 4 2 7t3 8v2q25 66 54.5 127.5t71.5 119.5zM51 18q-7 7 -9 12t4 13
q4 6 13 16.5t19.5 21t21 18t17.5 7.5q8 0 9 -11.5t-1 -18.5q-2 -6 -8 -17.5t-14.5 -22t-17.5 -18.5t-17 -8q-9 0 -17 8z" />
    <glyph glyph-name="c" unicode="c" horiz-adv-x="112" 
d="M98 125q-14 0 -30 -9.5t-30 -23.5t-24.5 -29.5t-12.5 -28.5q-2 -9 2.5 -16t11.5 -12q8 -3 18 -3q14 0 28.5 5.5t28.5 13.5t27 18.5t22 19.5q11 9 6 9q-4 0 -10 -6l-20 -15t-25.5 -17t-27.5 -13.5t-25 -5.5q-14 0 -20 9.5t5 28.5q4 6 12.5 16.5t19 20t21 16.5t17.5 6
q5 -1 3.5 -6t-6 -11t-9.5 -11l-6 -6q-2 -1 -3 -3.5t0 -4.5h3q3 0 10 5t13.5 12.5t11 16.5t2.5 16q-3 8 -13 8z" />
    <glyph glyph-name="d" unicode="d" horiz-adv-x="141" 
d="M72 48q1 1 4.5 5t7.5 8.5t8 8.5t7 4h2q0 -1 -1 -5.5t-2.5 -9l-3 -9t-2.5 -5.5q-1 -5 -1.5 -8.5t-1.5 -7.5q-2 -5 -2 -9t-2 -9q-2 -11 -4 -20.5t-4 -20.5q-5 -26 -1 -38t7 -12q2 0 2 9q-2 21 4 51t12 51q4 11 7.5 24.5t7.5 23.5q3 7 5.5 14t5.5 13q2 4 3 7.5t3 6.5
q10 12 28.5 36.5t38 52t35.5 53.5t20 39q2 5 2 12t-8 7h-3q-6 -1 -13.5 -8t-15 -15.5t-13.5 -17.5t-10 -14q-24 -34 -41 -70.5t-34 -74.5l-2 -4l-1 -1q-2 0 -3 2.5t-4 6.5q-4 3 -5.5 4.5t-6.5 1.5q-11 0 -15.5 -5t-12.5 -11q-9 -6 -19 -16.5t-19 -22.5t-16 -24t-11 -22
q-4 -8 -4.5 -18t10.5 -10q6 0 15.5 5.5t18.5 13t16.5 15.5t11.5 13zM14 22q3 10 11.5 23t19 26t21.5 24.5t19 17.5q7 4 12 4q6 0 8 -6q2 -5 -2.5 -13.5t-8.5 -12.5q-12 -13 -24.5 -26t-25.5 -25q-1 0 -4.5 -3t-8 -6.5t-8.5 -6.5t-7 -3t-2 7zM151 158q-4 -1 0 7.5t10.5 20.5
t12.5 22.5t7 12.5q3 5 11.5 19t18 28.5t19 25.5t14.5 11q2 -3 -1 -11t-8 -17t-10.5 -17t-7.5 -11q-11 -17 -22.5 -34t-22.5 -34q-1 -1 -4 -4.5t-6 -7.5t-6 -7.5t-5 -3.5z" />
    <glyph glyph-name="e" unicode="e" horiz-adv-x="104" 
d="M17 11q-14 4 -10.5 14.5t8.5 18.5q2 5 3.5 7t4.5 2h4q2 -1 5 -1q7 0 13.5 2.5t11.5 5.5q4 2 12.5 8t16 13.5t11 15t-1.5 12.5q-4 4 -11 4q-11 0 -27 -9.5t-30.5 -23t-25 -28.5t-10.5 -26q1 -14 10 -20t21 -6q11 0 26 5.5t29.5 14t28 18t21.5 17.5q3 3 5 6t0 3t-5 -2
q-12 -8 -22 -16t-24 -16q-11 -7 -27 -13.5t-30 -6.5q-3 0 -4 1h-3zM31 62q2 4 8.5 10t14.5 12t16 10.5t13 4.5q4 0 -2 -7q-3 -4 -9 -9.5t-13 -10.5t-14.5 -8.5t-12.5 -3.5q-1 0 -2 0.5t1 1.5z" />
    <glyph glyph-name="f" unicode="f" horiz-adv-x="92" 
d="M6 12q15 34 34.5 73.5t40.5 70.5q1 2 3.5 5t4.5 6.5t2 6.5t-3 4q-4 1 -15 -15t-23 -37t-23 -41t-15 -28q-5 -11 -10.5 -23t-11.5 -21q-9 -16 -15.5 -17.5t-11.5 -6.5t-1.5 -6t6.5 -2q3 -2 3 -6.5t-2 -10t-4.5 -10.5l-3.5 -7q-3 -6 -5 -11t-4 -12q-4 -10 -8.5 -25
t-8 -31.5t-5 -32t0.5 -25.5q1 -5 3 -8.5t6 -3.5t7 4q7 6 18.5 28t22 48.5t18 50.5t7.5 34q0 7 -2 15.5t0 13.5q2 3 7 6t12 6.5t13.5 6.5t9.5 4q4 2 16 9.5t24.5 16.5t22.5 17.5t9 11.5q0 3 -2 3q-3 0 -6.5 -3t-5.5 -5q-20 -17 -46.5 -31.5t-50.5 -24.5q-6 -3 -9 -3q-1 0 1 6
zM-1 -19q4 -1 5 -6t0.5 -11.5t-2 -12t-2.5 -8.5q-2 -6 -9.5 -27t-16.5 -43.5t-17.5 -40.5t-13.5 -18q-7 0 5 50q1 6 7 25t13.5 39.5t16 36.5t14.5 16z" />
    <glyph glyph-name="g" unicode="g" horiz-adv-x="144" 
d="M71 -22q-5 -8 -9 -13t-11 -11q-10 -11 -18.5 -20t-17.5 -20q-5 -6 -19 -23.5t-27.5 -37.5t-22.5 -38t-4 -25q3 -4 7 -4q12 0 31 21t37.5 48.5t33.5 53.5t19 36q5 10 7 15.5t4 9t6 7t13 10.5q8 7 21.5 16.5t23.5 11.5q2 0 3 2t-5 2h-2q-8 -1 -23 -11t-23 -15
q-1 -1 -3.5 -2t-1.5 1q8 23 12 46q2 11 1 13t-6 11q-3 5 0 13t5 13t-0.5 10t-6.5 7l-6 3t-5 1q-11 0 -25.5 -10.5t-28 -25t-24.5 -29t-15 -23.5q-2 -5 -1 -9t6 -4h2q5 0 17 7.5t16 9.5l12.5 7.5t15.5 8.5t15.5 7t13.5 3l1 -1q2 -4 0 -13.5t-5.5 -21t-7 -22t-5.5 -15.5z
M-45 -190q5 11 14 26t20 30t22 29t19 24q1 0 4 3.5t7 7.5t9 10q-1 -4 -3 -7q-2 -8 -3 -8q-4 -8 -16 -27.5t-26.5 -40t-28 -37t-20.5 -18.5q-1 2 0 4zM90 91q2 -3 -1 -10.5t-5 -9.5q-8 -12 -27.5 -22t-31.5 -17q-4 -2 -8.5 -5t-6.5 -3q-5 0 5 11q4 5 12.5 15t19 20t20.5 17.5
t17 7.5q5 0 6 -4z" />
    <glyph glyph-name="h" unicode="h" horiz-adv-x="176" 
d="M122 3q8 0 18 5t19.5 12t17.5 15l13 13q8 7 9.5 11t-1.5 4t-14 -9q-8 -6 -15 -12t-15 -13q-5 -3 -10 -6.5t-10 -5.5l-2 -1q-2 -1 -5 -1q-7 0 -10.5 5.5t-5.5 13t-2.5 15t-0.5 12.5q-2 16 -6 22t-11 6t-15.5 -6t-17 -14t-15.5 -16.5t-11 -13.5t-8 -11t-6 -6t2 14
q14 41 32 82t38 79q11 23 23 49.5t26 46.5q4 5 7 7.5t5 6.5q3 4 3 9t-3 5q-7 0 -20 -19t-29 -48t-33 -65t-31.5 -69.5t-25.5 -61t-15 -40.5q-2 -8 -6.5 -23t-3.5 -22q0 -6 7 -6h3q1 1 2 1q3 2 6.5 7.5t5.5 8.5q8 14 14.5 24.5t16.5 22.5q3 3 8.5 9.5t11.5 13.5t12.5 11.5
t10.5 4.5q7 -1 8 -10t2 -20t5 -21.5t16 -14.5q2 -1 6 -1z" />
    <glyph glyph-name="i" unicode="i" horiz-adv-x="102" 
d="M121 64q-7 -8 -20 -19t-28 -21t-29 -17t-22 -7q-4 0 -7 1q-6 4 -5 12.5t5 18t9 18t7 12.5t5 7.5t-1 8.5q-1 0 -1 0.5t-1 0.5q-4 0 -9.5 -6t-10.5 -14t-9 -15.5t-5 -9.5q-4 -9 -5.5 -22t7.5 -20q8 -5 19 -5t25 7t28.5 17t28 21t21.5 19q5 7 4 10t-3 3h-3zM48 95
q7 0 12.5 7t3.5 14q0 7 -6 7q-4 0 -9 -3t-8 -7.5t-2.5 -9.5t6.5 -8h3z" />
    <glyph glyph-name="j" unicode="j" horiz-adv-x="87" 
d="M99 47l4 4t-1 2q-4 0 -14 -5.5t-21 -13t-20.5 -15t-13.5 -10.5q-18 -14 -20 -14q-1 0 7 22q7 19 17 40t13 40q0 8 -5 8q-1 0 -1.5 -0.5t-1.5 -0.5q-5 -3 -10 -16t-7 -19q-10 -20 -19 -40.5t-17 -41.5q-3 -9 -5 -13.5t-4.5 -8t-6 -7t-9.5 -10.5q-6 -8 -12.5 -14.5
t-13.5 -14.5q-23 -25 -44.5 -54t-32.5 -61q-4 -11 -1 -18.5t11 -7.5q15 0 34.5 24t38 55t33 61t19.5 43q5 12 17.5 24t27.5 23.5t30.5 21.5t27.5 17zM-98 -141q7 8 14.5 18.5t14.5 18.5l5 5q7 9 13 16q5 6 9.5 11t6.5 5t0 -4q-3 -8 -15 -30.5t-27 -46.5t-29 -42.5t-21 -18.5
q-5 0 -1 10t10 22t12.5 23t7.5 13zM49 127q10 0 19 9l2 1q6 8 3.5 15t-9.5 7q-8 0 -15 -10q-9 -11 -7.5 -16.5t7.5 -5.5z" />
    <glyph glyph-name="k" unicode="k" horiz-adv-x="116" 
d="M97 22q2 2 8 6t12.5 9t11 9.5t4.5 6.5q-1 1 -2 1q-3 0 -6.5 -3t-4.5 -4q-17 -14 -40 -25t-45 -11q-8 0 -16.5 3t-6.5 14v2q2 8 11.5 19.5t22.5 22t26 18t21 7.5q5 0 11 -10q2 -6 5 -6q2 0 3 7.5t-1 12.5q-6 7 -15 7q-7 0 -16 -3t-17.5 -7.5t-15.5 -9t-11 -7.5
q-2 -2 -10.5 -9.5t-10.5 -4.5q-1 3 4.5 17t12.5 31t13.5 31.5t7.5 18.5q15 34 31 67.5t33 66.5q2 7 7 14.5t8 12.5q3 8 -2 8q-4 0 -12.5 -13.5t-19.5 -34.5t-23 -46t-22.5 -48.5t-18 -41.5t-10.5 -25q-14 -35 -24.5 -70.5t-19.5 -72.5q-5 -19 2 -19q4 0 7 14q2 7 3 14t3 14
q3 8 4 8t5 -4q10 -10 28 -10q17 0 34.5 8t30.5 15z" />
    <glyph glyph-name="l" unicode="l" horiz-adv-x="106" 
d="M146 326q-19 -24 -41 -60t-42.5 -75.5t-37 -78.5t-24.5 -69q-2 -10 -3 -21t1.5 -20t9 -15t18.5 -6q20 0 40.5 15t34.5 29q2 2 7.5 6.5t10.5 10.5t8.5 11.5t2.5 9.5l-2 2q-2 0 -4 -3t-3 -5q-5 -7 -16.5 -17.5t-25 -21t-27.5 -18t-24 -7.5q-6 0 -11 3.5t-7 14.5q-2 10 3 25
t8 26q17 53 42 103.5t54 97.5q6 10 12 21t13 20q2 2 5.5 6t6.5 8.5t4.5 8.5t-0.5 6t-3 2q-3 0 -5.5 -3.5t-4.5 -5.5z" />
    <glyph glyph-name="m" unicode="m" horiz-adv-x="266" 
d="M132 118q6 0 -4 -20q-3 -6 -8 -14.5t-9.5 -18.5t-8 -18.5t-3.5 -14.5q0 -10 7 -10q6 0 14 5.5t12 8.5q8 6 23 15t24 9q3 -1 4.5 -8.5t5 -15t9.5 -14t18 -6.5q8 0 21 5q3 2 12 6t18 9.5t15.5 10.5t5.5 8q0 2 -1 2q-4 0 -7 -3q-11 -7 -23 -13t-26 -10l-3 -1q-3 -1 -8 -1
q-10 0 -14.5 6.5t-7.5 14t-6.5 14t-12.5 6.5q-10 0 -27 -10q-3 -1 -8 -4.5t-11 -7.5l-10.5 -7t-6.5 -3q-4 0 -1 8.5t8.5 19.5t11 21t6.5 13q3 5 7.5 16t-2.5 16q-2 0 -2.5 0.5t-2.5 0.5q-4 0 -10.5 -3.5t-13 -8.5t-12.5 -9.5t-9 -7.5q-11 -11 -19.5 -20t-18.5 -20
q-3 -4 -11 -12l-16.5 -16.5t-14.5 -14t-5 -3.5q7 16 14 29t17 27q1 2 4 5.5t6 8t5 8t0 4.5h-2q-3 0 -10 -8.5t-14 -19t-12.5 -20t-7.5 -11.5q-4 -7 -9.5 -17.5t-3.5 -18.5q2 -5 6 -5q2 0 3 1q2 1 7 6t11.5 11t12.5 12l8 8q17 17 34.5 36t36.5 35q12 9 15 9z" />
    <glyph glyph-name="n" unicode="n" horiz-adv-x="181" 
d="M165 42q-8 -2 -14.5 -4.5t-11.5 -2.5q-13 0 -23 18q-10 23 -26 23q-10 0 -25 -9q-3 -2 -10 -7.5t-15.5 -11.5t-15 -10.5t-8.5 -4.5q2 5 6 12.5t7 12.5q1 2 5 8t7.5 13t5.5 12.5t0 7.5q-5 0 -13.5 -10.5t-16.5 -24t-15 -27t-9 -18.5q-6 -19 3 -19q6 0 14 7l20 18t21 18
q6 5 16.5 12.5t18.5 7.5q3 0 4 -1q5 -1 8.5 -7.5t8.5 -13.5t11.5 -12.5t16.5 -5.5q18 0 39.5 12t35.5 21q5 3 5 6t-2 3t-2 -0.5t-1 -0.5q-11 -5 -22.5 -11t-22.5 -11z" />
    <glyph glyph-name="o" unicode="o" horiz-adv-x="149" 
d="M97 25q12 3 22.5 7.5t21.5 9.5q2 1 8.5 4t13 7t11.5 7t2 4q-1 1 -5 -0.5t-8.5 -4t-8.5 -4.5l-6 -3q-8 -3 -17 -7t-17 -6q-4 -3 -11 -5q-2 0 -3 -0.5t-3 -0.5q-4 0 -4 6q2 7 4.5 12.5t4.5 12.5q5 11 4 21t-14 16q-6 3 -13 3q-14 0 -29 -9.5t-23 -20.5q-7 -10 -9.5 -17.5
t0.5 -18.5q0 -8 -5 -13q-4 -7 -7.5 -13.5t-6.5 -14.5q-2 -5 0 -10.5t8 -7.5q15 0 23 2.5t20 12.5q9 7 12.5 11.5t7 7.5t9 5.5t18.5 6.5zM57 27q-7 0 -10 2q-6 2 -8 3t-1.5 2t2 2.5t1.5 4.5q2 5 -2 5t-7 -3q-4 0 -3.5 3.5t2 7.5t4 8t2.5 5q6 8 18.5 16t23.5 8q2 0 4 -0.5
t4 -0.5l1 -2q6 -4 6 -11.5t-3.5 -15.5t-8 -15.5t-7.5 -11.5q-7 -7 -18 -7zM16 9q8 12 15 12q4 0 13 -0.5t11 -2.5t0 -5t-6 -6.5t-8 -6t-5 -3.5q-10 -5 -17 -5q-5 0 -6.5 3.5t3.5 13.5z" />
    <glyph glyph-name="p" unicode="p" horiz-adv-x="179" 
d="M92 -1q21 0 40.5 17t30.5 32q4 5 9.5 14t10 18.5t6.5 19t-2 16.5q-4 9 -14 9q-16 0 -35.5 -15t-38.5 -35.5t-34.5 -41.5t-23.5 -33q-7 -11 -10.5 -15.5t-5.5 -4.5q-1 0 2 8t7.5 18t9.5 19.5t6 12.5q7 14 15.5 32t13.5 32q8 21 2 21q-5 0 -12 -16q-12 -28 -26 -55t-27 -54
q-13 -28 -24 -55.5t-22 -55.5q-13 -37 -28 -75q-2 -5 -6 -15.5t0 -15.5l2 -1q5 0 8 7t4 9q11 29 21.5 54.5t22.5 49.5t25.5 47t30.5 49q5 8 7.5 10t4.5 2q3 0 6 -2t9 -5q5 -2 15 -2zM143 98q4 4 12.5 9t13.5 5q8 0 5 -15l-1 -5q-3 -10 -11.5 -24.5t-20.5 -28t-25.5 -22.5
t-26.5 -9h-6q-16 3 -10 16.5t20 29t30 28.5t20 16z" />
    <glyph glyph-name="q" unicode="q" horiz-adv-x="132" 
d="M101 22q14 20 18.5 28t3.5 10.5t-4 3.5t-3 5q1 9 7 17t-3 20q-5 5 -15 5q-12 0 -31 -9.5t-37 -23t-31 -28.5t-14 -25q0 -8 6 -10q2 -1 6 -1q8 0 17.5 3t19.5 7.5t19 9l15 7.5q9 5 16 8.5t11 3.5t2 -5t-13 -19q-21 -26 -35 -50.5t-26 -56.5q-3 -7 -8 -21t-9 -29t-6 -28.5
t1 -19.5q0 -2 3 -2t4.5 9t1.5 10q9 48 32 95t52 86zM11 25q-4 0 -3.5 3t7.5 11q6 6 17 16.5t24 20t26 16.5t22 7q10 0 7 -14q-4 -13 -12 -20.5t-21 -12.5q-12 -6 -24.5 -11.5t-25.5 -10.5q-10 -5 -17 -5z" />
    <glyph glyph-name="r" unicode="r" horiz-adv-x="137" 
d="M116 90q-4 4 -10 4q-8 0 -18.5 -6.5t-21 -15.5t-20 -18.5l-15.5 -15.5q-5 -5 -8.5 -9t-5.5 -4t-0.5 3l5.5 11q8 18 17.5 37.5t18.5 36.5l6.5 13t2.5 8q0 5 -3 5t-14 -18.5t-23 -42.5t-23 -47.5t-15 -34.5q-3 -10 1 -12q6 -2 12 6q5 6 18.5 21.5t29 31.5t30.5 28t23 12
q5 0 7.5 -5.5t7.5 -14.5q6 -10 19 -10q7 0 14.5 4t13.5 9q0 1 2 3.5t3.5 5t2 4t-1.5 1.5t-9.5 -5.5t-12.5 -7.5q-4 -3 -9 -3q-8 0 -12 7.5t-8 14.5z" />
    <glyph glyph-name="s" unicode="s" horiz-adv-x="113" 
d="M52 120q-5 -8 -6 -14.5t-2 -12t-3.5 -11.5t-9.5 -13q-2 -2 -6.5 -5.5l-9 -7t-7.5 -7.5t-2 -6l2 -1q3 0 7.5 3t9 6.5t8 7l4.5 4.5l6 7.5t5 2.5q1 0 7 -4q16 -11 17.5 -16t-15.5 -16q-5 -3 -12.5 -8t-14.5 -10.5t-12.5 -10.5t-7.5 -9q-3 -6 0.5 -8t8.5 -2q7 0 16.5 4.5
t19 10.5t17.5 13t12 12q5 8 5 11t2 8t11 9.5t7 5.5t-8 -1.5t-12 -2.5q-2 0 -3 0.5t-2 0.5q-2 2 -11 10.5t-11 10.5t0 7t6 10.5t8.5 10.5t6.5 7q4 5 10.5 15t1.5 17q-3 3 -8 3t-10.5 -4t-10.5 -9t-8.5 -10t-5.5 -8zM76 42l-1 -1q0 -2 -1 -4l-1 -2q-2 -4 -8 -9.5t-13 -11
t-14 -9.5t-12 -4q-4 0 1.5 6t9.5 9q7 5 16 12t16 11q6 2 5 2zM61 109q3 8 10 14l5 5q2 2 -2 -4q-1 -3 -3 -6q-1 -2 -6 -6.5t-4 -2.5z" />
    <glyph glyph-name="t" unicode="t" horiz-adv-x="70" 
d="M118 208q7 2 19.5 2h19.5q22 0 39.5 -1.5t37.5 -8.5q1 0 1.5 -0.5t1.5 -0.5q5 0 2 5t-13.5 8.5t-23 5.5t-24.5 3t-18 1h-21q-2 -1 -9 -1q-5 0 -8.5 1t-3.5 3q0 1 3.5 8.5t8.5 16t10 16.5t6 11q4 7 10.5 18t9.5 18q2 6 -5 6h-1q-5 -1 -10.5 -10t-7.5 -13l-16 -26l-16 -26
q-4 -8 -6 -13t-4 -7.5t-6 -4t-13 -1.5q-5 0 -24 -2.5t-40.5 -6.5t-39 -9t-19.5 -10q-2 -4 1 -5.5t8 -1.5q8 0 12 2q5 2 9 2t9 1q38 9 75 15l7.5 1.5t4.5 0.5q4 0 -1 -12q-34 -68 -60.5 -138t-42.5 -145q-1 -4 -3 -12.5t-3.5 -18t-1.5 -17.5t3 -10q0 -2 2 -2q4 0 5.5 8
t1.5 10q4 33 16.5 76.5t29.5 89t36 88.5t36 75q5 9 6.5 8.5t9.5 2.5z" />
    <glyph glyph-name="u" unicode="u" horiz-adv-x="194" 
d="M214 53q-4 0 -13.5 -5t-20 -11.5t-20.5 -11.5t-16 -5h-3q-7 1 -6.5 8t1.5 15.5t0.5 16.5t-8.5 11h-3q-8 0 -20.5 -6t-25.5 -14t-24.5 -16t-17.5 -13q-15 -9 -19 -9q-6 0 -3 8t9 18.5t13 20t11 12.5q7 5 7 10.5t-5 5.5q-6 0 -13.5 -7.5t-14.5 -18t-13 -20t-8 -14.5
q-5 -12 -4 -24t11 -12q8 0 15 6q10 6 19 12.5t20 12.5q3 2 11 7.5t17 11t16.5 9.5t10.5 4q4 -1 3 -9t-1 -17t3.5 -16t16.5 -7q9 1 23.5 8.5t22.5 12.5q1 1 7 4t12 7.5t10 8.5t2 6h-2z" />
    <glyph glyph-name="w" unicode="w" horiz-adv-x="202" 
d="M96 48q-3 -11 -8 -22.5t1 -24.5q5 -12 18 -12q14 0 28 9.5t26 23t22 29t17 26.5q14 20 11 29.5t-6 9.5q-2 0 -2 -3q-1 -11 -6 -23t-12.5 -23t-16.5 -21t-17 -17q-5 -5 -17 -14t-21 -9q-5 0 -8 3q-3 4 -2 11t3.5 15.5t5.5 16t4 12.5q0 11 -10 11q-3 0 -11.5 -6t-18.5 -14
t-18.5 -15.5t-11.5 -10.5q-1 -1 -5 -4.5t-9 -7.5t-9.5 -7.5t-7.5 -3.5q-5 0 -2 9q8 20 17 38t19 37q3 5 1.5 8.5t-3.5 3.5q-5 0 -11.5 -12t-8.5 -16l-16 -34t-13 -35q-2 -7 -0.5 -12t8.5 -5q2 0 4 1q11 2 22.5 12.5t19.5 17.5l12 10l12 10q4 4 8 7q7 7 11 7l2 -2z" />
    <glyph glyph-name="v" unicode="v" horiz-adv-x="90" 
d="M13 -17q4 0 10 4q13 9 28.5 28.5t25.5 31.5l9 12t12 17t10 17.5t3 12.5q0 3 -2 3t-5.5 -5t-4.5 -6q-3 -5 -13.5 -20t-23.5 -31.5t-25 -29.5t-17 -13q-3 0 -2 5t3 13t5.5 17t6.5 18q2 8 7 21t3 21q-1 1 -3 1q-4 0 -10.5 -13t-12.5 -29.5t-10.5 -31.5t-5.5 -19
q-2 -10 1.5 -17t10.5 -7z" />
    <glyph glyph-name="x" unicode="x" horiz-adv-x="218" 
d="M235 51q0 4 -1 4q-2 0 -6 -4l-5 -5q-14 -17 -34.5 -28t-43.5 -11q-6 0 -18 3.5t-23 8.5t-20 12.5t-9 14.5q0 1 5 4t11 6.5t12 6.5l8 4q14 7 25.5 9t25.5 7q7 2 7.5 5t-7.5 4q-20 0 -36 -5.5t-33 -15.5q-5 -3 -13 -8.5t-14 -5.5q-2 0 -5.5 4t-6.5 9.5t-5.5 10.5l-3.5 7
q-4 8 -7 16t-6 15q-2 2 -3.5 4t-3.5 2q-1 0 -3 -3q0 -14 6 -27.5t13 -25.5q2 -4 7 -10.5t3 -11.5q-1 -3 -5 -7t-9.5 -8t-10 -8t-7.5 -6q-3 -3 -8 -7.5t-10.5 -9t-9.5 -9t-4 -7.5q0 -4 1 -4q2 0 4 1.5t3 2.5q3 3 12.5 11t20 17t20 16t12.5 7t7 -4q7 -5 13.5 -11.5t13.5 -10.5
q23 -14 47 -14q11 0 26.5 5t29.5 13t25 18t13 19z" />
    <glyph glyph-name="y" unicode="y" horiz-adv-x="174" 
d="M81 45q-4 -2 -15 -8.5t-23.5 -13t-23 -11.5t-13.5 -5q-4 0 1 8.5t12.5 18.5t15 18.5t8.5 9.5q5 7 11.5 13.5t11.5 12.5q2 3 1.5 7t-4.5 4q-1 0 -6.5 -5.5t-12 -11.5t-11.5 -12t-7 -8q-3 -4 -10 -12t-13.5 -16.5t-11.5 -17t-4 -14.5q1 -10 11 -10q3 0 6.5 1t6.5 2
q16 7 30 14.5t29 15.5l20 12t26 9q7 0 7 -9q-5 -23 -20.5 -36.5t-32.5 -27.5q-15 -12 -32 -30.5t-33.5 -38.5t-31 -40t-23.5 -36q-5 -8 -9.5 -19t6.5 -18q3 -2 6 -2q9 0 22.5 11t28 27.5t29.5 37t28.5 39.5t23.5 34.5t14 22.5q8 14 12.5 23t9.5 16t12.5 13.5t20.5 16.5
q8 5 15 9t14 9q2 0 3.5 0.5t3.5 0.5q2 1 3 2.5t3 3.5q-2 0 -3 1t-3 0q-2 0 -3 -0.5t-2 -0.5q-5 -2 -9.5 -5t-9.5 -5q-6 -4 -13 -8t-12 -8q-1 0 -3.5 -1.5t-1.5 0.5q3 6 2 15.5t-8 14.5q-3 2 -8 2q-10 0 -23 -5.5t-18 -9.5zM92 -20q2 0 -5 -10l-36 -54t-38 -53
q-3 -3 -10.5 -13t-16.5 -20.5t-18 -18.5t-14 -8h-1q-5 3 2.5 17.5t19.5 31.5t24.5 32.5t15.5 19.5q13 15 30.5 34.5t32.5 32.5q2 1 2.5 1.5t2.5 1.5l6 4q2 1 3 2z" />
    <glyph glyph-name="z" unicode="z" horiz-adv-x="171" 
d="M-16 -130q8 0 18.5 6.5t15.5 9.5t14.5 11t20 17t19.5 17.5t12 13.5q2 4 4.5 6t5.5 5q11 12 20 24t18 26q8 10 22.5 14.5t25.5 7.5q3 1 2.5 2.5t-2.5 2.5h-2q-5 0 -12 -2.5t-11 -4.5q-2 -1 -4.5 -2t-4.5 -1t-2 1q-4 2 -2.5 10t-6.5 16q-10 11 -21 13t-24 2h-17
q-10 0 -10 2t3 5.5t7 7t8 7.5l5 5q10 8 24 22.5t19 25.5q3 8 -0.5 13.5t-11.5 7.5q-27 0 -55 -19t-43 -41l-4.5 -9t3.5 -7q5 0 8.5 4.5t5.5 8.5q3 6 13 15t21.5 16.5t23.5 13t20 5.5q6 0 6 -5q0 -3 -5 -9t-11.5 -12.5l-12.5 -12.5l-9 -9q-3 -2 -8 -7t-10 -10.5t-9.5 -10.5
t-4.5 -8q-1 -7 5 -9t11 -2h15q2 0 5 0.5t6 0.5q13 0 26.5 -4.5t10.5 -19.5q-2 -14 -10 -20t-19 -12q-30 -15 -57 -38.5t-50 -49.5q-2 -3 -5.5 -7t-6.5 -8.5t-4 -9.5t1 -9q3 -6 10 -6zM18 -72q4 4 15.5 15t25 22t26 19.5t17.5 8.5q4 0 -2.5 -8.5t-16 -18.5t-18.5 -19l-9 -9
l-26 -24t-28 -23q-2 -2 -5.5 -4t-7.5 -2q-1 0 -2 1q-3 1 1 7.5t10 13.5t12.5 13t7.5 8z" />
    <glyph glyph-name="dollar" unicode="$" horiz-adv-x="204" 
d="M46 101q4 -2 8 -3t9 -3q1 -1 2.5 -1.5t3.5 -2.5q0 -2 -1.5 -7.5t-4 -11.5t-4.5 -11t-3 -7q-4 -8 -12 -8q-4 0 -7.5 1t-6.5 1h-2q-1 -5 7 -6.5t10 -6.5q2 -3 1 -9t-3 -12.5t-4.5 -13t-4.5 -10.5q-4 -14 -9 -30.5t-7 -30.5q-3 -15 2 -15q4 0 5 9q4 21 11 43.5t15 42.5
q3 8 6 15.5t14 9.5q13 2 20.5 3t19.5 9q11 7 14.5 15.5t-5.5 19.5q-5 7 -16.5 12t-15.5 9q-1 1 0 5.5t3 9.5t4 9.5t3 6.5q5 11 9 20.5t9 20.5q3 8 5 13.5t11 5.5q14 -2 15.5 -12t-3.5 -20t-7.5 -12.5t-11.5 -9.5q-4 -4 -2.5 -5.5t3.5 -1.5q6 0 12 5t11.5 12t9 14.5t3.5 13.5
v4q0 8 -4 12.5t-9 7.5t-9 6t-4 7q0 5 5 16t11 23.5t11.5 24t8.5 18.5q2 6 -3 6l-2 -1q-1 -1 -6 -10.5t-11 -21t-11 -22t-7 -13.5q-4 -8 -6.5 -14.5t-9.5 -10.5l-28 -7t-26 -10q-7 -3 -16.5 -9t-17.5 -13.5t-13.5 -16t-4.5 -17.5q1 -15 12.5 -22.5t23.5 -12.5zM65 176
q8 5 21 9.5t22 4.5q2 -1 1 -5t-2.5 -8t-3.5 -8t-3 -5q-4 -10 -7 -16.5t-7 -17.5q-5 -12 -7.5 -17t-7.5 -5q-6 0 -21 6q-17 8 -20.5 16.5t1 16.5t14.5 15.5t20 13.5zM81 85q0 2 2 2q6 0 13.5 -4t10.5 -9q5 -7 2.5 -12.5t-8.5 -9t-14 -5.5t-13 -2q-2 0 -3.5 0.5t-3.5 0.5
q-2 2 -0.5 7.5t4.5 12t6 12.5t4 7z" />
    <glyph glyph-name="one" unicode="1" horiz-adv-x="127" 
d="M141 278l-43.5 -43.5t-44.5 -41.5q-5 -4 -9.5 -6.5t-8.5 -5.5q-5 -5 -3.5 -7t6.5 -2h1q9 2 21.5 12.5t20.5 17.5q2 2 8.5 8t14 13.5t14 13t7.5 5.5q1 -1 -3.5 -11t-10 -21l-10.5 -21t-7 -13q-8 -16 -14.5 -31t-14.5 -30q-8 -21 -17 -42.5t-19 -41.5q-5 -12 -9 -23t-9 -23
q-2 -2 -5 -10t2 -10q0 -1 1 -1q5 0 8 7t5 9q5 11 9.5 22.5t9.5 22.5q9 21 17.5 42t18.5 42q11 23 21 45.5t22 45.5q11 20 21 39.5t21 37.5q2 3 7.5 12.5t2.5 11.5q0 1 -2 1q-3 0 -7.5 -3.5t-9 -7.5t-8 -8t-4.5 -5z" />
    <glyph glyph-name="two" unicode="2" horiz-adv-x="172" 
d="M57 179q-2 2 -2.5 4.5t-0.5 4.5q0 6 3 11.5t6 10.5q7 9 18 21.5t24 23.5t27.5 18.5t27.5 7.5q11 0 11 -10q0 -11 -11.5 -32t-28 -44.5t-33 -44.5t-27.5 -33l-21 -27q-5 -7 -11.5 -13t-11.5 -14q-5 -5 -10.5 -11.5t-11.5 -13.5q-5 -5 -10.5 -13t-5.5 -16q0 -9 12 -9
q3 0 6 0.5t6 0.5l6 2t6 1q26 7 51 12.5t51 10.5q7 1 13 1.5t13 0.5q3 0 7.5 -1t6.5 -3q4 -1 7 -2t6 -1q4 0 4 3q0 5 -4 8.5t-9 5t-11 2t-9 0.5q-21 0 -49 -5.5t-48 -10.5q-5 -1 -9 -2t-9 -3q-5 -1 -9.5 -1.5t-8.5 -0.5q-7 0 -7 3q0 2 3.5 7t8.5 11t9.5 11t6.5 6q13 14 37 42
t48 60t42 62.5t18 49.5q0 23 -23 23q-15 0 -35.5 -11.5t-39 -28.5t-31 -35t-12.5 -32q0 -5 2 -9t7 -4t5 6z" />
    <glyph glyph-name="three" unicode="3" horiz-adv-x="195" 
d="M73 166q0 2 2.5 6t4.5 5q11 14 22.5 26t22.5 26q4 5 10.5 13t12 16.5t8 17.5t-1.5 15q-6 8 -17 8q-13 0 -29 -7.5t-31.5 -19t-28.5 -24.5t-19 -25q-3 -4 -5.5 -12.5t5.5 -10.5q7 0 7 7q-1 7 4.5 15t13 15.5t15.5 14.5t13 11q8 5 24.5 14t26.5 9q8 0 7 -9q-1 -6 -10 -18
t-20 -25.5t-22 -25.5t-16 -18q-7 -8 -11.5 -15t-5.5 -12.5t3.5 -8.5t15.5 -3q2 0 5 0.5t6 0.5q9 2 18 3t20 1t22 -3t20 -11q5 -6 2 -15t-10 -18t-15 -16.5t-12 -11.5q-11 -9 -26 -21t-32 -22.5t-34.5 -18t-32.5 -7.5h-1q-6 1 -8.5 2t-5.5 1q-3 1 -4 -1t-0.5 -5t4 -6t9.5 -3
h5q20 0 38 6t34.5 16t32 21.5t29.5 23.5q13 11 26.5 25.5t19.5 30.5q6 18 -5.5 28t-26.5 15q-6 2 -17 2h-22h-15.5t-12.5 -1h-6z" />
    <glyph glyph-name="four" unicode="4" horiz-adv-x="206" 
d="M208 208q2 2 2.5 4t2.5 4q2 7 -5 7h-8q-10 -10 -34 -23.5t-50 -26t-49.5 -21t-33.5 -8.5q-3 0 -4 1q0 4 8.5 15t19.5 23.5t21 24t14 15.5q11 11 23.5 23t21.5 24q5 5 6 7.5t-4 6.5q-7 -3 -16.5 -10.5t-19 -17t-17.5 -19t-13 -14.5q-8 -10 -16 -18.5t-16 -18.5
q-3 -3 -10.5 -11t-13.5 -17t-8 -17t6 -11q3 -1 8 -1q12 0 30.5 6t37.5 14.5t36 17t24 12.5q2 1 7 4t9 3q0 -5 -4 -10.5t-7 -9.5q-10 -13 -25 -35.5t-30.5 -47.5t-27.5 -48.5t-16 -37.5q-3 -15 5 -15q2 0 5 6q27 57 61.5 116t79.5 104z" />
    <glyph glyph-name="five" unicode="5" horiz-adv-x="219" 
d="M195 119q-6 11 -16 16.5t-22 8.5t-24.5 3.5t-23.5 0.5q-14 0 -25 -1t-24 -3q-4 0 -13.5 -1.5t-17.5 -1.5q-5 0 -7 1q-2 2 3 11.5t12.5 20t15 20t9.5 11.5q7 6 26 12t41.5 10.5t43.5 7t32 2.5h15.5t15.5 1t11 2.5t2 4.5q-7 6 -27 6q-12 0 -25.5 -1.5t-26 -3.5t-23 -4
t-16.5 -3q-16 -3 -29 -6t-24.5 -7.5t-21 -13t-20.5 -22.5q-7 -9 -15 -20t-11.5 -20.5t0.5 -15.5t19 -6q4 0 8 0.5t9 1.5q29 3 57 3h13.5t13.5 -1q12 0 24.5 -2.5t20 -8.5t7.5 -15.5t-14 -22.5q-29 -30 -68.5 -43t-81.5 -13q-7 0 -11.5 1.5t-14.5 5.5q-6 -2 -4 -5
q5 -11 12.5 -9.5t15.5 -1.5q10 -2 17 -2q26 0 53 7t50 19q9 4 22 12t23.5 18.5t15.5 22.5t-2 24z" />
    <glyph glyph-name="six" unicode="6" horiz-adv-x="160" 
d="M60 195q-11 -12 -18 -23t-16 -23q-1 -3 -3 -5q-8 -11 -14 -24t-11 -25q-8 -18 -11 -36.5t9 -36.5q15 -22 37 -22q25 0 49.5 16.5t38.5 34.5q10 12 18 32.5t1 35.5q-6 14 -17.5 17t-24.5 3q-5 0 -15 -1.5t-20.5 -3.5t-19.5 -5.5t-14 -8.5q1 7 7 16t10 14q32 48 78.5 95.5
t94.5 76.5q9 6 16 6q6 0 9 -9q1 -7 3 -7t3 4t1 6l-1 4q-3 14 -15 14q-17 0 -43 -18.5t-52 -42.5t-48.5 -48t-31.5 -36zM130 112q2 -17 -7 -34.5t-23.5 -31.5t-31.5 -22.5t-32 -8.5q-16 0 -25 12.5t-4 41.5q2 10 4 16.5t5 11.5t8 9t14 8q11 7 26.5 12.5t29.5 5.5
q12 0 23 -4.5t13 -15.5zM27 118l1 1q0 -1 -1 -1z" />
    <glyph glyph-name="seven" unicode="7" horiz-adv-x="200" 
d="M197 265q9 -6 3 -23t-17.5 -36t-24 -35.5t-17.5 -22.5q-5 -7 -13.5 -18.5t-12.5 -18.5q-7 -8 -12 -16.5t-11 -16.5q-2 -3 -4.5 -5t-2.5 -5q-3 -3 -7.5 -9.5t-9.5 -13.5t-9.5 -14t-6.5 -11q-3 -5 -7.5 -11t-7.5 -11q-5 -6 -9 -12t-8 -13q-2 -5 3 -5t12 8t14.5 18.5
t13.5 21t9 14.5l2 2q5 7 10.5 14t10.5 15q9 13 18.5 25.5t18.5 24.5t20.5 28t23 32.5t21.5 32.5t16 30t4 27t-19 18q-3 1 -10 1q-16 0 -39 -8t-46 -19.5t-41.5 -24.5t-25.5 -24q-5 -5 -2 -8t8 -3h3q8 2 5.5 4.5l-3.5 3.5q-1 3 15 13.5t38.5 22.5t46.5 21t39 9h6t5 -2z" />
    <glyph glyph-name="eight" unicode="8" horiz-adv-x="193" 
d="M0 14q10 -14 29 -14q25 0 54.5 16t47.5 32q6 5 12.5 12t11.5 16t5.5 18t-5.5 16q-8 9 -13.5 13t-8.5 6t-2 5.5t6 12.5q2 4 5 7.5t5 7.5q3 4 7 14l4 6l4 6q4 5 6.5 11.5t5.5 11.5q4 9 9.5 21t8.5 24t0.5 23.5t-13.5 18.5q-10 6 -24 6q-15 0 -32.5 -8t-33.5 -20
t-27.5 -26.5t-14.5 -28.5q-1 -9 -1.5 -17.5t2.5 -17.5q3 -10 7.5 -16t9 -10.5t10 -8.5t10.5 -10q-3 -3 -4.5 -5.5t-6.5 -4.5l-6 -6q-8 -6 -22.5 -19.5t-27 -30t-19 -33t0.5 -28.5zM106 273q9 6 23 13.5t28 7.5q16 0 22 -13l3 -7q2 -9 -1.5 -21.5t-9.5 -26t-12.5 -26
t-11.5 -19.5q-2 -4 -6.5 -12.5t-7.5 -8.5q-6 0 -14 -2q-6 -2 -10 -5t-9 -3q-3 0 -5 1q-22 14 -30.5 30t-5.5 32.5t15.5 32t31.5 27.5zM18 18q-6 3 -6 10t3 14.5t7 14t7 10.5t12.5 15t21 22.5t22 20.5t14.5 9l6 -2q7 -4 7 -7.5t-2 -6.5t-5 -6t-3 -8q0 -4 1 -4q3 0 9 9.5
t8 10.5q4 0 5 -0.5l5 -2.5q17 -9 16.5 -21t-9.5 -23.5t-22.5 -21.5t-22.5 -16q-8 -6 -26.5 -14t-33.5 -8q-9 0 -14 5zM118 139q-4 0 -4 3t11 8q3 1 2.5 -2t-3.5 -7q-4 -2 -6 -2z" />
    <glyph glyph-name="nine" unicode="9" horiz-adv-x="234" 
d="M179 112q6 7 17.5 22.5t19.5 32t6.5 29t-22.5 12.5h-3q-5 -1 -9 -2.5t-5 -1.5q-2 0 8 13q5 7 12 16.5t10 19t0.5 18.5t-15.5 14q-2 1 -9 1q-14 0 -32 -6t-26 -10q-10 -4 -31.5 -16.5t-41 -28t-30.5 -32t-1 -29.5q9 -9 19 -9q5 0 9.5 1t10.5 2q23 5 44 12.5t44 12.5
q10 4 20.5 7.5t20.5 5.5q2 1 7 1q9 0 8 -8t-6.5 -18t-12.5 -19.5t-10 -12.5q-14 -19 -28 -37t-28 -35q-5 -7 -21.5 -29t-33.5 -47t-29 -46.5t-8 -27.5q1 -2 3 -2q5 0 8.5 8.5t4.5 9.5q17 31 37.5 58.5t40.5 55.5l16 20t16 19q5 7 10 13.5t10 12.5zM49 167q-12 0 -10.5 7
t8.5 16t16.5 17.5t12.5 11.5q6 5 19.5 14t30 17.5t32.5 15t28 6.5q7 0 11 -3q6 -4 3 -13.5t-9 -20.5t-12.5 -21t-9.5 -13q-3 -4 -19.5 -9.5t-36.5 -11t-38.5 -9.5t-25.5 -4z" />
    <glyph glyph-name="zero" unicode="0" horiz-adv-x="200" 
d="M209 186q4 38 -17 59t-53 21t-58.5 -19t-45.5 -47.5t-31 -61.5t-16 -60q-5 -33 4 -55.5t43 -22.5q30 0 59 17t52 43t39.5 56.5t21.5 57.5zM8 109q8 22 19 47.5t27 47.5t37 36.5t49 14.5q47 0 56 -62q1 -25 -14 -56.5t-39 -59.5t-52.5 -46.5t-54.5 -18.5q-28 0 -36.5 26
t8.5 71z" />
    <glyph glyph-name="percent" unicode="%" horiz-adv-x="256" 
d="M18 -93q4 0 5 4q6 15 13 25h1q8 -2 9 -6.5t8 -8.5q2 -2 8 -2q8 0 17.5 5.5t18 13t15 16.5t8.5 15q2 7 1 10.5t-9 5.5q-7 2 -6.5 2t-5.5 4q-2 1 -6 1q-11 0 -22 -11l-17 -17l-10 -11q2 3 3.5 6l3.5 7q25 44 52 87t55 86q8 11 21.5 31.5t28 43t25.5 43.5t14 31q2 11 1.5 20
t-11.5 14q-6 2 -8 3q-1 1 -3 1q-9 0 -21 -4t-24 -9.5t-23 -12t-17 -12.5q-8 -7 -7.5 -14t11.5 -9q14 -4 13.5 -7t-9.5 -12q-4 -3 -6 -6.5t-4 -7.5q-5 -8 -4.5 -16.5t9.5 -8.5h6q6 2 15.5 7.5t17 13t11.5 16.5t1 17q-4 8 -7 10.5t-8 2.5q-2 0 -5.5 -0.5t-7.5 -0.5
q-19 0 -15 5.5t16.5 12.5t27.5 13t18 7q2 1 7 1q8 0 11 -9q1 -11 -2.5 -19.5t-8.5 -18.5q-2 -2 -2 -3t-2 -3q-17 -28 -34.5 -54.5t-34.5 -53.5q-12 -20 -24.5 -39t-23.5 -39q-7 -11 -13.5 -21t-12.5 -20q0 -2 -3.5 -8t-4.5 -8q-4 -5 -12.5 -20t-17.5 -31.5t-16 -31.5t-8 -19
q-1 -7 4 -7zM61 -57q2 11 16 20.5t25 9.5q3 0 3 -3q-1 -5 -5.5 -11t-10.5 -11t-12.5 -9t-11.5 -4q-7 0 -4 8zM171 254q4 4 8 4q3 0 4 -2q3 -3 2.5 -7t-3.5 -8t-6.5 -7t-5.5 -5t-7.5 -5.5t-10.5 -3.5q-1 0 -2 1q-2 2 0.5 6.5t6.5 10t8.5 10.5t5.5 6z" />
    <glyph glyph-name="ampersand" unicode="&#x26;" horiz-adv-x="187" 
d="M50 122q8 -3 9.5 -4.5t-3.5 -9.5q-3 -2 -14.5 -6.5t-16.5 -6.5q-10 -5 -24 -14t-16 -21q0 -16 15 -24q3 -2 11.5 -5.5t8.5 -5.5t-3 -10t-6.5 -17.5t-7 -18t-4.5 -10.5q-2 -3 -6 -11t1 -8q5 -1 9 5.5t6 11.5q4 8 7.5 16t7.5 16q4 9 5.5 14t4.5 7.5t8.5 3t15.5 1.5
q8 0 18.5 2.5t21.5 6t20 9.5t12 14q3 5 1.5 9.5t-2.5 8t0 5.5t9 2q2 0 5 -0.5t7 -0.5h2q7 0 5.5 5t-8.5 7q-3 1 -10 1q-10 0 -22.5 -1t-18.5 -3q-8 -1 -15.5 -3t-15.5 -2h-5q3 9 5.5 13t6.5 5.5t9.5 2t13.5 2.5q2 1 8.5 2.5t3.5 5.5q-2 2 -10.5 2t-11.5 2q-5 1 -8 1.5
t-1 5.5q4 5 6 11t5 12q2 6 6.5 16.5t8.5 14.5q2 3 9.5 4.5t15.5 1.5q17 0 25 -4t7 -10.5t-6 -12.5t-11.5 -11.5t-10.5 -7.5q-8 -5 -9.5 -8t1.5 -3q6 0 14.5 4.5t16 11.5t13 14.5t5.5 13.5q0 14 -11 19t-22 6q-2 0 -12.5 -1t-15.5 -1h-2q-1 1 1.5 7t6 13.5t6.5 14t4 7.5
q5 13 10 24t11 23q1 4 4.5 12t-3.5 9q-4 1 -9.5 -7.5t-10.5 -19.5t-9 -21.5t-6 -14.5q-4 -6 -7 -12.5t-6 -13.5q-5 -11 -7 -17.5t-15 -10.5q-14 -3 -32.5 -13.5t-20.5 -27.5q-1 -14 5 -18t17 -9zM46 51q3 10 4.5 12.5t12.5 6.5q7 2 17.5 4.5t19.5 2.5q13 0 18 -5
q6 -8 -0.5 -14.5t-17.5 -11t-23 -7t-17 -2.5q-5 -1 -12 -1q-5 0 -5.5 3t3.5 12zM25 39q-4 0 -11.5 2.5t-11 8.5t1.5 15t27 22q4 2 7.5 4t7.5 2q3 0 4 -1q-1 -3 -4 -11.5t-6.5 -17.5t-7.5 -16.5t-7 -7.5zM50 162q2 1 6 3.5t9 5t10 4.5t7 2l1 -1q0 -2 -2.5 -10t-6.5 -17
t-7 -16t-5 -7q-4 0 -8.5 2t-6.5 3q-13 7 -9 15t12 16zM76 115q1 -2 0 -2t-1 1z" />
    <glyph glyph-name="b.ss01" horiz-adv-x="144" 
d="M141 275q2 4 9 13t1 12q-4 2 -14 -9.5t-20.5 -26.5t-19 -29.5t-10.5 -18.5q-26 -42 -45 -85.5t-35 -90.5q-5 -15 -9.5 -30.5t-9.5 -29.5q0 -2 -1.5 -6t-2.5 -8.5t-0.5 -8t3.5 -3.5q2 0 2 1q3 1 6 5.5t6.5 10t6 10.5t3.5 8l6 10q14 26 17 26t5.5 -6t10.5 -11q9 -9 20 -9
q10 0 21.5 9t21.5 21.5t17 26.5t8 24q1 4 2.5 8t0.5 7q-2 8 -6 15.5t-15 7.5q-9 0 -20 -7t-21.5 -17t-20 -20.5t-14.5 -16.5q-11 -13 -17.5 -24.5t-15.5 -25.5q-2 -2 -2 -3l-1 -1q-1 0 0 3t2 5q1 4 2 7t3 8v2q25 66 54.5 127.5t71.5 119.5zM51 18q-7 7 -9 12t4 13
q4 6 13 16.5t19.5 21t21 18t17.5 7.5q8 0 9 -11.5t-1 -18.5q-2 -6 -8 -17.5t-14.5 -22t-17.5 -18.5t-17 -8q-9 0 -17 8z" />
    <glyph glyph-name="b_b" horiz-adv-x="242" 
d="M7 40q-5 -15 -9.5 -30.5t-9.5 -29.5q0 -2 -1.5 -6t-2.5 -8.5t-0.5 -8t3.5 -3.5q2 0 2 1q3 1 6 5.5t6.5 10t6 10.5t3.5 8l6 10q14 26 17 26t5.5 -6t10.5 -11q9 -9 20 -9q10 0 21.5 9t21.5 21.5t17 26.5t8 24q1 4 2.5 8t0.5 7q-2 8 -6 15.5t-15 7.5q-9 0 -20 -7t-21.5 -17
t-20 -20.5t-14.5 -16.5q-11 -13 -17.5 -24.5t-15.5 -25.5q-2 -2 -2 -3l-1 -1q-1 0 0 3t2 5q1 4 2 7t3 8v2q25 66 54.5 127.5t71.5 119.5q2 4 9 13t1 12q-4 2 -14 -9.5t-20.5 -26.5t-19 -29.5t-10.5 -18.5q-26 -42 -45 -85.5t-35 -90.5zM118 -36q3 1 6.5 6t7 12t6.5 13.5
t4 10.5q7 13 10 18t5 5t4.5 -5.5t8.5 -10.5q8 -7 17 -7t18.5 8t18 19.5t14.5 24.5t7 22q0 3 1.5 7t0.5 6q-2 7 -5 14t-12 7q-3 0 -9 -2q-5 -2 -9 -5.5t-9 -6.5q-11 -11 -19.5 -20t-18.5 -22q-9 -11 -14.5 -22t-13.5 -23q-1 -4 -3 -4l1 2q2 4 2 5q2 8 4 13v3
q20 60 45.5 116.5t60.5 110.5q2 3 8 11.5t1 11.5q-4 2 -12 -8.5t-17 -24.5t-16 -27.5t-9 -16.5q-22 -40 -38 -79.5t-30 -82.5q-2 -9 -5.5 -20t-5.5 -19q-1 -5 -2 -8.5t-3 -8.5q0 -2 -1.5 -5.5t-2 -7.5t0 -7t3.5 -3zM46 43q4 6 13 16.5t19.5 21t21 18t17.5 7.5q8 0 9 -11.5
t-1 -18.5q-2 -6 -8 -17.5t-14.5 -22t-17.5 -18.5t-17 -8q-9 0 -17 8q-7 7 -9 12t4 13zM227 104q8 0 8 -11t-2 -17q-1 -6 -6 -16t-12 -20t-14.5 -17.5t-14.5 -7.5q-8 0 -14 8q-6 7 -8 11t3 12q3 5 10.5 15t16.5 19.5t18 16.5t15 7z" />
    <glyph glyph-name="exclam" unicode="!" horiz-adv-x="168" 
d="M113 202q-5 -8 -8.5 -15.5t-8.5 -15.5q-14 -21 -26 -45.5t-22 -47.5q-4 -7 -8.5 -15t-6.5 -16v-1q-1 -4 -0.5 -7.5t3.5 -3.5q2 0 3 1t9.5 16.5t18.5 35t19.5 37.5t12.5 25q4 8 8 14t9 14q3 8 7 14t8 13q5 8 9 16t9 16q2 3 5 8.5t6.5 12.5t5.5 12.5t1 8.5q0 2 -3 2
t-7 -5.5t-6 -7.5q-5 -9 -9.5 -17.5t-10.5 -17.5q-5 -8 -9 -15.5t-9 -15.5zM12 -28q1 -1 2 -1q6 0 9.5 9.5t2.5 14.5q-1 8 -11 8q-6 0 -9 -6t-5 -11q-2 -4 2 -7.5t7 -5.5z" />
    <glyph glyph-name="quotedbl" unicode="&#x22;" horiz-adv-x="64" 
d="M33 305q-1 0 -1.5 0.5t-2.5 0.5q-7 0 -13.5 -11t-6.5 -18q1 -4 4 -4q4 0 8 5.5t6 7.5q2 3 6.5 9t-0.5 10zM52 293q5 9 -2 9h-3q-11 -3 -13.5 -13.5t2.5 -10.5q2 0 6 3t9 11z" />
    <glyph glyph-name="question" unicode="?" horiz-adv-x="184" 
d="M40 56l1 2q8 21 22.5 44.5t27.5 42.5q17 25 33.5 49.5t33.5 50.5q10 17 19 38t5 41q-2 12 -13.5 17.5t-22.5 5.5q-19 0 -41.5 -9t-42.5 -24t-35 -34t-18 -40q-2 -11 6 -22.5t19 -12.5q5 0 3.5 2.5t-3.5 4.5q-14 15 -12.5 28t12.5 27q8 12 21 23.5t28.5 20.5t31.5 15t31 6
q5 0 9 -2l3 -1q11 -6 8.5 -21t-11 -32.5t-18.5 -33t-14 -22.5q-7 -11 -13.5 -19.5t-12.5 -19.5q-15 -21 -29 -43.5t-27 -45.5q-1 -3 -5 -10t-7 -14.5t-4 -14.5t3 -10q5 0 7.5 4t4.5 9zM20 0q4 0 6.5 4t3.5 9q0 6 -5 6t-10.5 -5.5t-0.5 -10.5q3 -3 6 -3z" />
    <glyph glyph-name="at" unicode="@" horiz-adv-x="220" 
d="M79 0q15 0 30.5 6.5t30.5 16t27.5 22t21.5 24.5q4 7 -3 7q-3 0 -5 -2q-13 -15 -24.5 -26.5t-24 -20t-27.5 -12.5t-35 -4h-5q-10 0 -13.5 2t-10.5 11t-11.5 15t-6.5 17t-2 22t5 21q8 18 19.5 36.5t26.5 32.5t33.5 23t40.5 9q21 0 33 -7q5 -3 9 -10t6.5 -15t3.5 -15.5
t0 -12.5q-1 -6 -6.5 -17t-13.5 -21t-17 -17.5t-17 -7.5q-7 0 -10 13q-1 5 -2 10.5t1 10.5l6.5 13t-2.5 14q-4 7 -12 7q-10 0 -22.5 -7t-24.5 -17.5t-22 -21t-15 -18.5q-4 -4 -7 -11t3 -11q2 -2 4 -2q8 0 18.5 6.5t14.5 8.5q6 5 13 8l3 2q5 2 9 5t9 5q3 2 8 2q7 0 7.5 -6
t4.5 -12q8 -9 16 -9q11 0 22 9.5t21 23t16 29t6 26.5q-2 29 -19.5 41.5t-44.5 12.5q-29 0 -55.5 -17t-44.5 -39q-4 -5 -9 -14.5t-10 -20t-8.5 -20t-4.5 -15.5q-2 -12 0 -25t9 -24q11 -17 24 -25.5t33 -8.5zM119 129q5 0 5 -6v-3q-2 -8 -6 -12t-12 -8q-13 -6 -24 -12.5
t-23 -12.5q-2 -1 -4.5 -3t-4.5 -1q1 4 9.5 13.5t20 19.5t22.5 17.5t17 7.5z" />
    <glyph glyph-name="numbersign" unicode="#" horiz-adv-x="297" 
d="M216 77q5 0 10.5 -0.5t11.5 -0.5q4 0 6 1h9q9 0 21 0.5t15 3.5t1 5t-5.5 3t-7 1h-5.5h-23h-8t-9 1h-8q-5 0 -9.5 -0.5t-9.5 -0.5q-6 0 -10 1h-6q3 6 6 11.5t7 12.5q3 7 6.5 12.5t6.5 11.5h30q10 0 21.5 0.5t14.5 4.5q3 3 1 4.5t-5.5 2.5t-7.5 1.5t-5 0.5h-41
q8 12 14.5 24.5t13.5 24.5q2 3 5.5 9t6.5 12.5t5.5 12t1.5 8.5t-4 3t-7 -5.5t-6 -7.5q-5 -9 -10 -17.5t-10 -17.5q-13 -22 -26 -46h-26q-6 0 -12 -0.5t-12 -0.5h-5q-4 1 -11 1q7 12 14 24.5t14 24.5q2 3 5 9t6.5 12.5t5.5 12t1 8.5t-3 3q-4 0 -8 -5.5t-5 -7.5
q-5 -9 -10 -17.5t-10 -17.5q-15 -23 -26 -46q-11 -1 -21.5 -1.5t-21.5 -1.5q-8 -1 -17 -0.5t-17 -1.5h-17.5t-17.5 -2l-1 -1q-5 -1 -8 -4.5t4 -5.5q1 -1 10 -1q8 0 18.5 0.5t21 1.5t20 1.5t14.5 0.5h25l-1 -1q-8 -12 -14 -24.5t-12 -24.5h-17.5t-16.5 -1q-8 -2 -17 -2
t-17 -2h-2q-5 -1 -7.5 -4.5t2.5 -5.5q3 -1 11 -1q11 0 27.5 1t29.5 1q-4 -8 -8.5 -15.5t-7.5 -15.5q-3 -7 -7.5 -15t-6.5 -15v-2q-2 -4 -1 -7.5t3 -3.5q1 0 5 2q3 2 8 11.5t10.5 21.5t11 23.5t8.5 17.5h1h22.5t22.5 1h23q-1 -1 -1 -1.5t-1 -1.5q-4 -8 -8 -15.5t-7 -15.5
q-8 -15 -15 -30l-1 -2q0 -4 0.5 -7.5t3.5 -3.5q1 0 3 2q3 2 8.5 12t11.5 22t11.5 23.5t8.5 17.5q5 0 9.5 -0.5t9.5 -0.5q4 0 7 1h9zM119 115q3 7 6.5 12.5t7.5 11.5h67q-16 -26 -27 -49h-13h-27t-27 -1q3 6 6 12.5t7 13.5z" />
    <glyph glyph-name="parenleft" unicode="(" horiz-adv-x="126" 
d="M6 -92q2 -1 3 0.5t2 2.5t1 8v16v17.5t1 12.5q18 89 54.5 174t104.5 148l8.5 8.5t10.5 6.5l2 -1q1 -1 3 -1q5 0 6.5 7.5t-6.5 7.5q-12 0 -29.5 -15t-34 -34.5t-30.5 -39.5t-20 -30q-33 -58 -53.5 -119t-30.5 -127q-2 -8 -1 -21t7 -20z" />
    <glyph glyph-name="hyphen" unicode="-" 
d="M108 119q5 1 9.5 1h9.5h3q5 0 6 1t6 2t5.5 2t-0.5 5q-10 2 -26 2h-10q-4 -2 -12 -2h-14h-10q-4 -2 -11 -2h-23q-5 -1 -14 -1h-9q-8 0 -10 -7l1 -2q2 -2 6 -4.5t7 -2.5q2 0 3 1q3 1 6.5 1h6.5q11 0 21.5 1t21.5 3q5 1 15 1q8 0 12 1z" />
    <glyph glyph-name="plus" unicode="+" horiz-adv-x="143" 
d="M79 141q2 5 3.5 10.5t2.5 10.5q0 8 1.5 12t3.5 12q2 7 -5 10h-2q-2 -1 -6 -5t-3 -9q0 -1 -1 -7t-2.5 -13t-3 -13.5t-2.5 -9.5h-22h-9q-5 -2 -7.5 -2h-6.5h-10q-3 0 -6 -2t-3 -5v-2q6 -6 14 -6h1l2 1q4 1 12 1h10q7 0 10 1q5 1 12 1q-1 -8 -3.5 -22t-5.5 -22q-2 -6 -1 -8
t0 -7q-2 -5 -0.5 -6t5.5 -1q2 4 5 13.5t6 20t5.5 20.5t2.5 14h7h6q8 0 11 2q5 1 11 1h8q7 0 8.5 0.5t6.5 1.5q6 1 6.5 2t-1.5 6q-10 2 -26 2q-7 0 -9 -1q-5 -1 -12 -1h-13z" />
    <glyph glyph-name="asterisk" unicode="*" horiz-adv-x="151" 
d="M29 16q3 -1 8 1t7 6q3 7 9 11.5t11 10.5q0 -2 -0.5 -2.5t-0.5 -1.5q0 -7 -0.5 -10t-2.5 -9q-2 -7 -1.5 -8.5t-1.5 -6.5q0 -5 1 -6t3 -1h3q2 5 6 17t4 17t1 9t3 8q3 -4 5.5 -8.5t4.5 -7.5q5 -5 6.5 -7.5t3.5 -7.5q1 -2 7 -9.5t8 -7.5l1 1q1 0 3 2q-2 6 -7.5 17.5
t-8.5 15.5q-7 6 -10 14t-8 15q6 1 12 0.5t11 1.5q5 1 9.5 1h9.5q7 0 8.5 1t6.5 2q6 1 6.5 2t-0.5 5q-9 2 -18 2h-18q-4 -2 -12 -2h-3q2 4 4 5q2 5 4.5 7.5t7.5 6.5q5 5 5.5 6.5t3.5 6.5q4 5 3 6t-5 3q-17 -13 -30 -30q2 4 2 10q1 8 2.5 12t3.5 11q1 7 -4 12h-2
q-4 -2 -7.5 -6t-3.5 -8q1 -9 -2 -16.5t-4 -16.5q0 -4 -1 -5q-2 4 -4 7.5t-4 5.5q-5 6 -7 10l-5 10q-2 4 -4.5 4.5t-6.5 0.5l-1 -1q-2 -3 -1.5 -8.5t3.5 -8.5q6 -5 9 -12t7 -14h-19q-5 -1 -13 -1h-10q-7 0 -9 -7v-2q2 -2 5.5 -4.5t8.5 -2.5q1 0 2 1q3 1 6.5 1h6.5h10
q7 0 10 1q6 2 8 2q-5 -6 -10.5 -11t-9.5 -10q-4 -6 -7 -9.5t-8 -8.5q-6 -6 -2 -11z" />
    <glyph glyph-name="semicolon" unicode=";" horiz-adv-x="36" 
d="M2 1q2 0 2.5 -0.5t1.5 -0.5q7 0 12.5 10.5t3.5 12.5q-1 1 -2 1q-4 1 -7 -3.5t-5 -8.5q-2 -2 -5 -5.5t-1 -5.5zM25 55q2 -2 4 -2q5 0 6 7t-5 6q-3 -1 -5.5 -5t0.5 -6z" />
    <glyph glyph-name="braceleft" unicode="{" horiz-adv-x="198" 
d="M181 307q-5 5 -11 5q-15 0 -26.5 -17t-20.5 -39t-14.5 -44t-7.5 -33q-2 -8 -4 -19.5t-6 -22.5t-9.5 -20.5t-14.5 -12.5q-2 -2 -6 -2q-5 0 -9.5 2t-6.5 2t-1.5 -2t4.5 -9q11 -23 7 -42t-13 -40q-6 -14 -12.5 -27.5t-10.5 -27.5t-4 -28.5t6 -29.5q3 -8 7 -12t6 -4q4 0 0 7
q-14 18 -10 39t14 42.5t20 44t9 44.5l-3 12q-1 8 -1 12.5t6 9.5q12 8 18.5 14.5t11.5 20.5q14 37 20 73.5t26 71.5q2 3 9.5 14t13.5 11q4 0 6 -5q2 -6 1 -12.5t-3 -12.5t-4 -10.5t-1 -6.5l1 -2q3 0 6.5 7t6 16t3 18.5t-2.5 14.5z" />
    <glyph glyph-name="parenright" unicode=")" horiz-adv-x="148" 
d="M153 272q2 9 1 22t-7 20h-1q-2 2 -7 -3q0 -1 -0.5 -8t-0.5 -16v-17.5t-1 -12.5q-14 -69 -38.5 -137.5t-68.5 -125.5q-3 -3 -12.5 -15t-21 -25t-22.5 -22.5t-16 -9.5q-1 0 -1.5 0.5t-1.5 0.5q-4 0 -6.5 -7.5t5.5 -7.5q12 0 29.5 14.5t34.5 34.5t31 40t20 30
q35 60 54.5 118.5t29.5 126.5z" />
    <glyph glyph-name="comma" unicode="," horiz-adv-x="22" 
d="M5 4q-1 -4 1 -4q4 0 10.5 9t3.5 14q-1 2 -3 2q-4 0 -7.5 -8t-3.5 -10z" />
    <glyph glyph-name="period" unicode="." horiz-adv-x="47" 
d="M18 4q0 -4 4 -4t5 4q4 5 1.5 8t-4.5 3q-3 0 -5.5 -3t-0.5 -8z" />
    <glyph glyph-name="slash" unicode="/" horiz-adv-x="151" 
d="M27 -29q0 -1 1 -1q3 0 3.5 5t1.5 7q2 23 9 46t15 46q11 30 24 57.5t26.5 53.5t26.5 51.5t24 53.5q1 2 -1 3t-4 0q-3 0 -7 -6.5t-5 -8.5q-18 -36 -34.5 -67t-30.5 -62t-25.5 -64.5t-20.5 -73.5q0 -3 -1.5 -9t-2.5 -12.5t-1 -12t2 -6.5z" />
    <glyph glyph-name="equal" unicode="=" 
d="M17 157q4 -7 13 -7q1 0 1.5 0.5t1.5 0.5q8 2 13 2h15.5t22 1t20.5 2t12 2q4 1 10 1h8q8 0 9.5 0.5t6.5 2.5q6 0 6 1.5t-1 5.5q-4 1 -11.5 1.5t-13.5 0.5q-9 0 -11 -1q-4 -1 -12 -1h-14q-7 0 -10 -1q-4 -1 -11 -1h-14h-9q-5 -2 -7.5 -2h-5.5h-11q-7 0 -9 -7zM17 95
q2 -4 6.5 -5.5t9.5 -1.5q4 2 13 2h9q1 0 10 1t20.5 1.5t20.5 1.5t10 1q4 2 10 2q7 0 12 0.5t12 1.5q6 2 6 3t-1 5q-4 1 -11.5 1.5t-13.5 0.5q-9 0 -11 -1q-8 -2 -12 -2h-24q-4 -1 -11 -1h-14q-6 0 -9 -1q-6 -1 -11.5 -1h-12.5q-8 0 -9 -7z" />
    <glyph glyph-name="equal.1" 
d="M130 21q-4 0 -6.5 -0.5t-4.5 -0.5q-8 -2 -12 -2t-7 0.5t-7 0.5q-7 0 -10 -1q-4 -1 -11 -1h-23q-5 -2 -8 -2h-6h-10q-8 0 -9 -7l1 -2q2 -2 5.5 -4t7.5 -2q2 0 3 1q4 1 13 1q3 0 14 0.5t23 1.5t22 2t11 2q5 0 9 0.5t9 0.5q8 0 9.5 1t6.5 1q6 2 6 2.5t-1 5.5q-4 1 -11.5 1.5
t-13.5 0.5z" />
    <glyph glyph-name="colon" unicode=":" horiz-adv-x="21" 
d="M6 71q2 -3 4 -3q4 0 5 3q4 5 1.5 8t-4.5 3q-3 0 -5.5 -2.5t-0.5 -8.5zM6 46q1 -3 4 -3q4 0 5 3q4 5 1.5 8t-4.5 3q-3 0 -5.5 -2.5t-0.5 -8.5z" />
    <glyph glyph-name="backslash" unicode="\" horiz-adv-x="151" 
d="M25 290q11 -28 24 -53.5t26.5 -51.5t26.5 -53.5t23 -57.5q8 -23 15 -46t9 -46q1 -2 2 -7t3 -5q1 0 1 1q2 1 2 6.5t-1 12t-2.5 12.5t-1.5 9q-8 40 -19.5 73.5t-26 64.5t-31 62t-34.5 67q-1 2 -5 8.5t-7 6.5q-2 1 -3.5 0t-0.5 -3z" />
    <glyph glyph-name="underscore" unicode="_" 
d="M97 -18q5 0 9.5 0.5t9.5 0.5h3q5 0 6.5 1t6.5 1q5 2 5.5 2.5t-0.5 5.5q-10 2 -26 2q-4 0 -6 -0.5t-4 -0.5q-8 -2 -12 -2t-7 0.5t-7 0.5q-7 0 -11 -1q-2 0 -5 -0.5t-5 -0.5h-23q-5 -2 -7.5 -2h-5.5h-11q-8 0 -9 -7l1 -2q2 -2 5.5 -4t7.5 -2q2 0 3 1q4 1 12 1q25 0 44 4h14
q9 0 12 2z" />
    <glyph glyph-name="quotesingle" unicode="'" horiz-adv-x="22" 
d="M6 113q0 -4 2 -4q3 0 9.5 9t3.5 14q-1 0 -1 0.5t-2 0.5q-4 0 -7 -7.5t-4 -9.5z" />
    <glyph glyph-name="braceright" unicode="}" horiz-adv-x="147" 
d="M141 297q-3 8 -7.5 11.5t-6.5 3.5q-3 0 1 -6q14 -19 10 -39.5t-14 -42.5l-20 -44t-9 -44q2 -8 2 -11q2 -8 2 -13t-7 -10q-11 -8 -17.5 -14.5t-11.5 -20.5q-7 -18 -11.5 -36.5l-9 -37t-10 -36.5t-15.5 -35q-2 -3 -9.5 -14.5t-13.5 -11.5q-5 0 -6 6q-2 6 -1 12.5t3 12.5
t4 10.5t1 6.5q-1 1 -2 1q-2 0 -5.5 -6.5t-6.5 -15.5t-3.5 -18t3.5 -15t11 -6q15 0 26.5 17t20.5 39.5t14.5 44.5t7.5 33q2 8 4 19.5t6 22.5t9.5 20.5t14.5 13.5q2 1 6 1q5 0 9.5 -2t6.5 -2t1.5 2t-4.5 10q-11 22 -7 40.5t13 39.5q6 14 12.5 28t10.5 28t4 28.5t-6 29.5z" />
    <glyph glyph-name="p.ss01" horiz-adv-x="179" 
d="M92 -1q21 0 40.5 17t30.5 32q4 5 9.5 14t10 18.5t6.5 19t-2 16.5q-4 9 -14 9q-16 0 -35.5 -15t-38.5 -35.5t-34.5 -41.5t-23.5 -33q-7 -11 -10.5 -15.5t-5.5 -4.5q-1 0 2 8t7.5 18t9.5 19.5t6 12.5q7 14 15.5 32t13.5 32q8 21 2 21q-5 0 -12 -16q-12 -28 -26 -55t-27 -54
q-13 -28 -24 -55.5t-22 -55.5q-13 -37 -28 -75q-2 -5 -6 -15.5t0 -15.5l2 -1q5 0 8 7t4 9q11 29 21.5 54.5t22.5 49.5t25.5 47t30.5 49q5 8 7.5 10t4.5 2q3 0 6 -2t9 -5q5 -2 15 -2zM143 98q4 4 12.5 9t13.5 5q8 0 5 -15l-1 -5q-3 -10 -11.5 -24.5t-20.5 -28t-25.5 -22.5
t-26.5 -9h-6q-16 3 -10 16.5t20 29t30 28.5t20 16z" />
    <glyph glyph-name="space" unicode=" " horiz-adv-x="130" 
 />
    </font>
</defs>
</svg>
